Led Zeppelin – Physical Graffiti (Limited Remastered Japanese Edition)




No Cover available


Artist: Led Zeppelin
Year: 1975/2012
Genre: Rock
Notes: Discogs
Add. Notes: Limited Remastered Japanese Edition
Watch Songs on: YouTube
Cover incl.: Yes
Encoder: FLAC
Bitrate: ~900 kBit/s (44.1 kHz/16 Bit/s)
Log & Cue incl.: Yes/Yes
Password: “slam” (without ” “)


All Downloads/Hosters are compatible

Download 1
KatFile.com
Turbobit.net
Rapidgator.net
FileFactory.com
Download 2
KatFile.com
Turbobit.net
Rapidgator.net
FileFactory.com

Tracklist:

1-1 Custard Pie 4:20
1-2 The Rover 5:44
1-3 In My Time Of Dying 11:08
1-4 Houses Of The Holy 4:01
1-5 Trampled Under Foot 5:38
1-6 Kashmir 9:41
2-1 In The Light 8:46
2-2 Bron-Yr-Aur 2:07
2-3 Down By The Seaside 5:15
2-4 Ten Years Gone 6:55
2-5 Night Flight 3:37
2-6 The Wanton Song 4:10
2-7 Boogie With Stu 3:45
2-8 Black Country Woman 4:30
2-9 Sick Again 4:40

EAC-Log, CUE-Sheed & NFO:

Click to open spoiler
Exact Audio Copy V1.0 beta 3 from 29. August 2011

EAC extraction logfile from 15. December 2012, 15:05

Led Zeppelin / Physical Graffiti cd1

Used drive : MATSHITADVD-RAM UJ-850S Adapter: 1 ID: 0

Read mode : Secure
Utilize accurate stream : Yes
Defeat audio cache : Yes
Make use of C2 pointers : No

Read offset correction : 102
Overread into Lead-In and Lead-Out : No
Fill up missing offset samples with silence : Yes
Delete leading and trailing silent blocks : No
Null samples used in CRC calculations : Yes
Used interface : Native Win32 interface for Win NT & 2000

Used output format : User Defined Encoder
Selected bitrate : 128 kBit/s
Quality : High
Add ID3 tag : No
Command line compressor : C:\Program Files\Exact Audio Copy\Flac\flac.exe
Additional command line options : -V -8 -T “Date=%year%” -T “Genre=%genre%” %source%

TOC of the extracted CD

Track | Start | Length | Start sector | End sector
———————————————————
1 | 0:00.00 | 4:14.23 | 0 | 19072
2 | 4:14.23 | 5:37.12 | 19073 | 44359
3 | 9:51.35 | 11:06.05 | 44360 | 94314
4 | 20:57.40 | 4:02.18 | 94315 | 112482
5 | 24:59.58 | 5:36.40 | 112483 | 137722
6 | 30:36.23 | 8:28.57 | 137723 | 175879

Range status and errors

Selected range

Filename C:\Users\ALIK\Desktop\music\2012. 10 LIMITED CELEBRATION DAY VERSION CD SET-JAPAN CD AP50\Led Zeppelin – Physical Graffiti\disc1\Led Zeppelin – Physical Graffiti cd1.wav

Peak level 100.0 %
Extraction speed 2.2 X
Range quality 100.0 %
Test CRC 1D8F0A8F
Copy CRC 1D8F0A8F
Copy OK

No errors occurred

AccurateRip summary

Track 1 accurately ripped (confidence 11) [78689977] (AR v2)
Track 2 accurately ripped (confidence 11) [3BE73D1D] (AR v2)
Track 3 accurately ripped (confidence 11) [8B562692] (AR v2)
Track 4 accurately ripped (confidence 11) [64F2B91D] (AR v2)
Track 5 accurately ripped (confidence 11) [F772ECB2] (AR v2)
Track 6 accurately ripped (confidence 11) [7F3F0F54] (AR v2)

All tracks accurately ripped

End of status report

—- CUETools DB Plugin V2.1.3

[CTDB TOCID: okwhzwNaxnUyUcnZsoWolQ0FK1o-] found, Submit result: okwhzwNaxnUyUcnZsoWolQ0FK1o- has been confirmed
[09340f58] (52/54) Accurately ripped
[9324f6e9] (01/54) No match
[b57c9a81] (01/54) No match

==== Log checksum B1387926166744F3388B45B2EE04B7159A52C6C4BC5B1B8D8438ABDC8B5B70F1 ====

Exact Audio Copy V1.0 beta 3 from 29. August 2011

EAC extraction logfile from 15. December 2012, 15:53

Led Zeppelin / Physical Graffiti cd2

Used drive : MATSHITADVD-RAM UJ-850S Adapter: 1 ID: 0

Read mode : Secure
Utilize accurate stream : Yes
Defeat audio cache : Yes
Make use of C2 pointers : No

Read offset correction : 102
Overread into Lead-In and Lead-Out : No
Fill up missing offset samples with silence : Yes
Delete leading and trailing silent blocks : No
Null samples used in CRC calculations : Yes
Used interface : Native Win32 interface for Win NT & 2000

Used output format : User Defined Encoder
Selected bitrate : 128 kBit/s
Quality : High
Add ID3 tag : No
Command line compressor : C:\Program Files\Exact Audio Copy\Flac\flac.exe
Additional command line options : -V -8 -T “Date=%year%” -T “Genre=%genre%” %source%

TOC of the extracted CD

Track | Start | Length | Start sector | End sector
———————————————————
1 | 0:00.00 | 8:47.20 | 0 | 39544
2 | 8:47.20 | 2:06.40 | 39545 | 49034
3 | 10:53.60 | 5:16.10 | 49035 | 72744
4 | 16:09.70 | 6:33.05 | 72745 | 102224
5 | 22:43.00 | 3:37.45 | 102225 | 118544
6 | 26:20.45 | 4:09.45 | 118545 | 137264
7 | 30:30.15 | 3:53.13 | 137265 | 154752
8 | 34:23.28 | 4:32.72 | 154753 | 175224
9 | 38:56.25 | 4:43.28 | 175225 | 196477

Range status and errors

Selected range

Filename C:\Users\ALIK\Desktop\music\2012. 10 LIMITED CELEBRATION DAY VERSION CD SET-JAPAN CD AP50\Led Zeppelin – Physical Graffiti\disc2\Led Zeppelin – Physical Graffiti cd2.wav

Peak level 100.0 %
Extraction speed 2.3 X
Range quality 100.0 %
Test CRC CC829C43
Copy CRC CC829C43
Copy OK

No errors occurred

AccurateRip summary

Track 1 accurately ripped (confidence 13) [DAAC44F0] (AR v2)
Track 2 accurately ripped (confidence 13) [9B1FF473] (AR v2)
Track 3 accurately ripped (confidence 13) [FFBDD652] (AR v2)
Track 4 accurately ripped (confidence 13) [3580C233] (AR v2)
Track 5 accurately ripped (confidence 13) [9FE3FD69] (AR v2)
Track 6 accurately ripped (confidence 13) [CE003407] (AR v2)
Track 7 accurately ripped (confidence 13) [06135B78] (AR v2)
Track 8 accurately ripped (confidence 13) [06BF85C7] (AR v2)
Track 9 accurately ripped (confidence 13) [B24A366D] (AR v2)

All tracks accurately ripped

End of status report

—- CUETools DB Plugin V2.1.3

[CTDB TOCID: 6Ex1eXcHtokVcEJPbrHRCa6LR2g-] found, Submit result: 6Ex1eXcHtokVcEJPbrHRCa6LR2g- has been confirmed
[8fe6caf5] (54/55) Accurately ripped
[cba82d4b] (01/55) No match

==== Log checksum C938196BD4F8B6F7348B54AC68884733B89EFC6C6F5A27E219B05679B8F1C9A1 ====

REM GENRE “Hard Rock”
REM DATE 1975
REM DISCID 4C092906
REM COMMENT “ExactAudioCopy v1.0b3”
CATALOG 4943674055845
PERFORMER “Led Zeppelin”
TITLE “Physical Graffiti cd1”
FILE “Led Zeppelin – Physical Graffiti cd1.flac” WAVE
TRACK 01 AUDIO
TITLE “Custard Pie”
PERFORMER “Led Zeppelin”
ISRC USAT29900617
INDEX 01 00:00:00
TRACK 02 AUDIO
TITLE “The Rover”
PERFORMER “Led Zeppelin”
ISRC USAT29901684
INDEX 00 04:13:48
INDEX 01 04:14:23
TRACK 03 AUDIO
TITLE “In My Time Of Dying”
PERFORMER “Led Zeppelin”
ISRC USAT29900627
INDEX 01 09:51:35
TRACK 04 AUDIO
TITLE “Houses Of The Holy”
PERFORMER “Led Zeppelin”
ISRC USAT29900631
INDEX 00 20:57:00
INDEX 01 20:57:40
TRACK 05 AUDIO
TITLE “Trampled Under Foot”
PERFORMER “Led Zeppelin”
ISRC USAT29900622
INDEX 01 24:59:58
TRACK 06 AUDIO
TITLE “Kashmir”
PERFORMER “Led Zeppelin”
ISRC USAT29900621
INDEX 00 30:35:38
INDEX 01 30:36:23

REM GENRE “Hard Rock”
REM DATE 1976
REM DISCID 7D0A3B09
REM COMMENT “ExactAudioCopy v1.0b3”
CATALOG 4943674055845
PERFORMER “Led Zeppelin”
TITLE “Physical Graffiti cd2”
FILE “Led Zeppelin – Physical Graffiti cd2.flac” WAVE
TRACK 01 AUDIO
TITLE “In The Light”
PERFORMER “Led Zeppelin”
ISRC USAT29900636
INDEX 01 00:00:00
TRACK 02 AUDIO
TITLE “Bron-Yr-Aur”
PERFORMER “Led Zeppelin”
ISRC USAT29901691
INDEX 00 08:46:03
INDEX 01 08:47:20
TRACK 03 AUDIO
TITLE “Down By The Seaside”
PERFORMER “Led Zeppelin”
ISRC USAT29901692
INDEX 01 10:53:60
TRACK 04 AUDIO
TITLE “Ten Years Gone”
PERFORMER “Led Zeppelin”
ISRC USAT29900626
INDEX 00 16:08:00
INDEX 01 16:09:70
TRACK 05 AUDIO
TITLE “Night Flight”
PERFORMER “Led Zeppelin”
ISRC USAT29901698
INDEX 00 22:41:68
INDEX 01 22:43:00
TRACK 06 AUDIO
TITLE “The Wanton Song”
PERFORMER “Led Zeppelin”
ISRC USAT29900637
INDEX 00 26:19:50
INDEX 01 26:20:45
TRACK 07 AUDIO
TITLE “Boogie With Stu”
PERFORMER “Led Zeppelin”
ISRC USAT29901695
INDEX 00 30:28:33
INDEX 01 30:30:15
TRACK 08 AUDIO
TITLE “Black Country Woman”
PERFORMER “Led Zeppelin”
ISRC USAT29901696
INDEX 00 34:22:38
INDEX 01 34:23:28
TRACK 09 AUDIO
TITLE “Sick Again”
PERFORMER “Led Zeppelin”
ISRC USAT29901697
INDEX 00 38:48:08
INDEX 01 38:56:25


Leave a Reply

Your email address will not be published. Required fields are marked *

Enter the text from the image below
 

This site uses Akismet to reduce spam. Learn how your comment data is processed.