Led Zeppelin – Physical Graffiti




No Cover available

Artist: Led Zeppelin
Year: 1975/1987
Genre: Rock
Notes: Discogs
Add. Notes:
Watch Songs on: YouTube
Cover incl.: Yes
Encoder: FLAC
Bitrate: ~800 kBit/s (44.1 kHz/16 Bit/s)
Log & Cue incl.: Yes/Yes
Size: 634,2 MB
Password: “slam” (without ” “)


All Downloads/Hosters are compatible

Download 1
KatFile.com
Turbobit.net
Rapidgator.net
FileFactory.com
Download 2
KatFile.com
Turbobit.net
Rapidgator.net
FileFactory.com

Tracklist:

Disc 1
1 Custard Pie 4:20
2 The Rover 5:44
3 In My Time Of Dying 11:08
4 Houses Of The Holy 4:01
5 Trampled Under Foot 5:38
6 Kashmir 9:41

Disc 2
1 In The Light 8:46
2 Bron-Yr-Aur 2:07
3 Down By The Seaside 5:15
4 Ten Years Gone 6:55
5 Night Flight 3:37
6 The Wanton Song 4:10
7 Boogie With Stu 3:45
8 Black Country Woman 4:30
9 Sick Again 4:40

EAC-Log, CUE-Sheed & NFO:

Click to open spoiler
Exact Audio Copy V1.0 beta 3 from 29. August 2011

EAC extraction logfile from 26. January 2013, 17:15

Led Zeppelin / Physical Graffiti (Disc One)

Used drive : MATSHITADVD-RAM UJ-850S Adapter: 1 ID: 0

Read mode : Secure
Utilize accurate stream : Yes
Defeat audio cache : Yes
Make use of C2 pointers : No

Read offset correction : 102
Overread into Lead-In and Lead-Out : No
Fill up missing offset samples with silence : Yes
Delete leading and trailing silent blocks : No
Null samples used in CRC calculations : Yes
Used interface : Native Win32 interface for Win NT & 2000

Used output format : User Defined Encoder
Selected bitrate : 128 kBit/s
Quality : High
Add ID3 tag : No
Command line compressor : C:\Program Files\Exact Audio Copy\Flac\flac.exe
Additional command line options : -V -8 -T “Date=%year%” -T “Genre=%genre%” %source%

TOC of the extracted CD

Track | Start | Length | Start sector | End sector
———————————————————
1 | 0:00.33 | 4:15.37 | 33 | 19194
2 | 4:15.70 | 5:38.55 | 19195 | 44599
3 | 9:54.50 | 11:04.20 | 44600 | 94419
4 | 20:58.70 | 4:04.10 | 94420 | 112729
5 | 25:03.05 | 5:38.33 | 112730 | 138112
6 | 30:41.38 | 8:33.27 | 138113 | 176614

Range status and errors

Selected range

Filename G:\ALIK\Led Zeppelin Discography\1975. Physical Graffiti\1975. Physical Graffiti (Swan Song SS 200-2,USA)\disc1\Led Zeppelin – Physical Graffiti (Disc One).wav

Peak level 100.0 %
Extraction speed 2.2 X
Range quality 99.9 %
Test CRC B07A4C95
Copy CRC B07A4C95
Copy OK

No errors occurred

AccurateRip summary

Track 1 accurately ripped (confidence 7) [6CF5A81D] (AR v2)
Track 2 accurately ripped (confidence 7) [A4E9976D] (AR v2)
Track 3 accurately ripped (confidence 7) [F28EE154] (AR v2)
Track 4 accurately ripped (confidence 6) [C984D8E9] (AR v2)
Track 5 accurately ripped (confidence 7) [031318E2] (AR v2)
Track 6 accurately ripped (confidence 6) [774CC3BA] (AR v2)

All tracks accurately ripped

End of status report

—- CUETools DB Plugin V2.1.3

[CTDB TOCID: K7iccG.PiEguY1KMWxEkKORvAZk-] found, Submit result: discs with pregaps not supported in this protocol version
[92a72afc] (153/153) Differs in 15294 samples @00:00:30-00:00:43
You can use CUETools to repair this rip.

==== Log checksum ED165435AD3C1B21D39C9129EC35C843739540E279A8AD1A4CDE3FC4C6684103 ====

Exact Audio Copy V1.0 beta 3 from 29. August 2011

EAC extraction logfile from 26. January 2013, 18:03

Led Zeppelin / Physical Graffiti (disc 2)

Used drive : MATSHITADVD-RAM UJ-850S Adapter: 1 ID: 0

Read mode : Secure
Utilize accurate stream : Yes
Defeat audio cache : Yes
Make use of C2 pointers : No

Read offset correction : 102
Overread into Lead-In and Lead-Out : No
Fill up missing offset samples with silence : Yes
Delete leading and trailing silent blocks : No
Null samples used in CRC calculations : Yes
Used interface : Native Win32 interface for Win NT & 2000

Used output format : User Defined Encoder
Selected bitrate : 128 kBit/s
Quality : High
Add ID3 tag : No
Command line compressor : C:\Program Files\Exact Audio Copy\Flac\flac.exe
Additional command line options : -V -8 -T “Date=%year%” -T “Genre=%genre%” %source%

TOC of the extracted CD

Track | Start | Length | Start sector | End sector
———————————————————
1 | 0:00.32 | 8:50.10 | 32 | 39791
2 | 8:50.42 | 2:06.38 | 39792 | 49279
3 | 10:57.05 | 5:16.42 | 49280 | 73021
4 | 16:13.47 | 6:34.60 | 73022 | 102631
5 | 22:48.32 | 3:38.08 | 102632 | 118989
6 | 26:26.40 | 4:09.47 | 118990 | 137711
7 | 30:36.12 | 3:53.03 | 137712 | 155189
8 | 34:29.15 | 4:32.42 | 155190 | 175631
9 | 39:01.57 | 4:43.50 | 175632 | 196906

Range status and errors

Selected range

Filename G:\ALIK\Led Zeppelin Discography\1975. Physical Graffiti\1975. Physical Graffiti (Swan Song SS 200-2,USA)\disc2\Led Zeppelin – Physical Graffiti (disc 2).wav

Peak level 94.4 %
Extraction speed 2.1 X
Range quality 99.9 %
Test CRC D864E521
Copy CRC D864E521
Copy OK

No errors occurred

AccurateRip summary

Track 1 accurately ripped (confidence 4) [74C50C6D] (AR v2)
Track 2 accurately ripped (confidence 4) [FDD2F212] (AR v2)
Track 3 accurately ripped (confidence 4) [9B8EB777] (AR v2)
Track 4 accurately ripped (confidence 4) [521D0855] (AR v2)
Track 5 accurately ripped (confidence 4) [286C193B] (AR v2)
Track 6 accurately ripped (confidence 4) [49F481BE] (AR v2)
Track 7 accurately ripped (confidence 4) [3F370548] (AR v2)
Track 8 accurately ripped (confidence 4) [0388A858] (AR v2)
Track 9 accurately ripped (confidence 4) [1157015F] (AR v2)

All tracks accurately ripped

End of status report

—- CUETools DB Plugin V2.1.3

[CTDB TOCID: 9byjahNEsWh2ed_xpmRkYoNF91o-] disk not present in database, Submit result: discs with pregaps not supported in this protocol version

==== Log checksum 4953829EDD212CE45F1B38BAC646D1F28D22DE9F5397E78730594020DA97DA6D ====

REM GENRE “Classic Rock”
REM DATE 1975
REM DISCID 48093206
REM COMMENT “ExactAudioCopy v1.0b3”
CATALOG 0075670020023
PERFORMER “Led Zeppelin”
TITLE “Physical Graffiti (Disc One)”
FILE “Led Zeppelin – Physical Graffiti (Disc One).flac” WAVE
TRACK 01 AUDIO
TITLE “Custard Pie”
PERFORMER “Led Zeppelin”
INDEX 00 00:00:00
INDEX 01 00:00:33
TRACK 02 AUDIO
TITLE “The Rover”
PERFORMER “Led Zeppelin”
INDEX 00 04:13:74
INDEX 01 04:15:70
TRACK 03 AUDIO
TITLE “In My Time Of Dying”
PERFORMER “Led Zeppelin”
INDEX 01 09:54:50
TRACK 04 AUDIO
TITLE “Houses Of The Holy”
PERFORMER “Led Zeppelin”
INDEX 00 20:58:15
INDEX 01 20:58:70
TRACK 05 AUDIO
TITLE “Trampled Under Foot”
PERFORMER “Led Zeppelin”
INDEX 00 25:02:23
INDEX 01 25:03:05
TRACK 06 AUDIO
TITLE “Kashmir”
PERFORMER “Led Zeppelin”
INDEX 01 30:41:38

REM GENRE Rock
REM DATE 1975
REM DISCID 800A4109
REM COMMENT “ExactAudioCopy v1.0b3”
CATALOG 0075670020023
PERFORMER “Led Zeppelin”
TITLE “Physical Graffiti (disc 2)”
FILE “Led Zeppelin – Physical Graffiti (disc 2).flac” WAVE
TRACK 01 AUDIO
TITLE “In the Light”
PERFORMER “Led Zeppelin”
INDEX 00 00:00:00
INDEX 01 00:00:32
TRACK 02 AUDIO
TITLE “Bron-Yr-Aur”
PERFORMER “Led Zeppelin”
INDEX 00 08:50:17
INDEX 01 08:50:42
TRACK 03 AUDIO
TITLE “Down by the Seaside”
PERFORMER “Led Zeppelin”
INDEX 01 10:57:05
TRACK 04 AUDIO
TITLE “Ten Years Gone”
PERFORMER “Led Zeppelin”
INDEX 00 16:11:55
INDEX 01 16:13:47
TRACK 05 AUDIO
TITLE “Night Flight”
PERFORMER “Led Zeppelin”
INDEX 00 22:46:45
INDEX 01 22:48:32
TRACK 06 AUDIO
TITLE “The Wanton Song”
PERFORMER “Led Zeppelin”
INDEX 01 26:26:40
TRACK 07 AUDIO
TITLE “Boogie With Stu”
PERFORMER “Led Zeppelin”
INDEX 00 30:33:40
INDEX 01 30:36:12
TRACK 08 AUDIO
TITLE “Black Country Woman”
PERFORMER “Led Zeppelin”
INDEX 00 34:27:47
INDEX 01 34:29:15
TRACK 09 AUDIO
TITLE “Sick Again”
PERFORMER “Led Zeppelin”
INDEX 00 38:56:20
INDEX 01 39:01:57


0

Publication author

offline 14 hours

Chaos

3
Comments: 4Publics: 3418Registration: 02-02-2019
Spread the Download

Leave a Reply

Your email address will not be published. Required fields are marked *

Enter the text from the image below
 

This site uses Akismet to reduce spam. Learn how your comment data is processed.