Led Zeppelin – Mothership (Limited Remastered Japanese Edition)




Artist: Led Zeppelin
Year: 2007/2012
Genre: Rock
Notes: Discogs
Add. Notes: Limited Remastered Japanese Edition
Cover incl.: Yes
Encoder: FLAC
Bitrate: ~900 kBit/s (44.1 kHz/16 Bit/s)
Log & Cue incl.: Yes
Size: 1810,7 MB
Password: “slam” (without ” “)


All Downloads/Hosters are compatible

Download 1
KatFile.com
Turbobit.net
FileFactory.com
Rapidgator.net
Download 2
KatFile.com
Turbobit.net
FileFactory.com
Rapidgator.net

Tracklist:

1-1 Good Times Bad Times 2:48
1-2 Communication Breakdown 2:29
1-3 Dazed And Confused 6:28
1-4 Babe I'm Gonna Leave You 6:42
1-5 Whole Lotta Love 5:33
1-6 Ramble On 4:22
1-7 Heartbreaker 4:16
1-8 Immigrant Song 2:27
1-9 Since I've Been Loving You 7:24
1-10 Rock And Roll 3:41
1-11 Black Dog 4:55
1-12 When The Levee Breaks 7:10
1-13 Stairway To Heaven 8:02

2-1 The Song Remains The Same 5:32
2-2 Over The Hills And Far Away 4:49
2-3 D'Yer Mak'er 4:24
2-4 No Quarter 7:00
2-5 Trampled Under Foot 5:36
2-6 Houses Of The Holy 4:04
2-7 Kashmir 8:30
2-8 Nobody's Fault But Mine 6:16
2-9 Achilles Last Stand 10:23
2-10 In The Evening 6:51
2-11 All My Love 5:54

EAC-Log, CUE-Sheed & NFO:

Click to open spoiler
Exact Audio Copy V1.0 beta 3 from 29. August 2011

EAC extraction logfile from 15. December 2012, 18:35

Led Zeppelin / Mothership disc 1

Used drive : MATSHITADVD-RAM UJ-850S Adapter: 1
ID: 0

Read mode : Secure
Utilize accurate stream : Yes
Defeat audio cache : Yes
Make use of C2 pointers : No

Read offset correction : 102
Overread into Lead-In and Lead-Out : No
Fill up missing offset samples with silence : Yes
Delete leading and trailing silent blocks : No
Null samples used in CRC calculations : Yes
Used interface : Native Win32 interface
for Win NT & 2000

Used output format : User Defined Encoder
Selected bitrate : 128 kBit/s
Quality : High
Add ID3 tag : No
Command line compressor : C:\Program Files\Exact
Audio Copy\Flac\flac.exe
Additional command line options : -V -8 -T “Date=%
year%” -T “Genre=%genre%” %source%

TOC of the extracted CD

Track | Start | Length | Start sector | End sector
———————————————————
1 | 0:00.00 | 2:47.40 | 0 | 12564
2 | 2:47.40 | 2:28.41 | 12565 | 23705
3 | 5:16.06 | 6:28.07 | 23706 | 52812
4 | 11:44.13 | 6:41.72 | 52813 | 82959
5 | 18:26.10 | 5:32.71 | 82960 | 107930
6 | 23:59.06 | 4:22.22 | 107931 | 127602
7 | 28:21.28 | 4:15.42 | 127603 | 146769
8 | 32:36.70 | 2:26.69 | 146770 | 157788
9 | 35:03.64 | 7:23.72 | 157789 | 191085
10 | 42:27.61 | 3:41.16 | 191086 | 207676
11 | 46:09.02 | 4:54.69 | 207677 | 229795
12 | 51:03.71 | 7:10.20 | 229796 | 262065
13 | 58:14.16 | 8:02.23 | 262066 | 298238

Range status and errors

Selected range

Filename C:\Users\ALIK\Desktop\music\2012. 10
LIMITED CELEBRATION DAY VERSION CD SET-JAPAN CD
AP50\Led Zeppelin – Mothership\disc1\Led Zeppelin –
Mothership disc 1.wav

Peak level 99.8 %
Extraction speed 2.6 X
Range quality 100.0 %
Test CRC 159FBA67
Copy CRC 159FBA67
Copy OK

No errors occurred

AccurateRip summary

Track 1 accurately ripped (confidence 125) [98C163B5]
(AR v2)
Track 2 accurately ripped (confidence 126) [A32CF662]
(AR v2)
Track 3 accurately ripped (confidence 126) [4E47AD60]
(AR v2)
Track 4 accurately ripped (confidence 127) [B373A586]
(AR v2)
Track 5 accurately ripped (confidence 126) [A220A370]
(AR v2)
Track 6 accurately ripped (confidence 127) [52E14B80]
(AR v2)
Track 7 accurately ripped (confidence 126) [B9823480]
(AR v2)
Track 8 accurately ripped (confidence 124) [87A53562]
(AR v2)
Track 9 accurately ripped (confidence 122) [21F549E5]
(AR v2)
Track 10 accurately ripped (confidence 123) [33A019BB]
(AR v2)
Track 11 accurately ripped (confidence 125) [4458F467]
(AR v2)
Track 12 accurately ripped (confidence 123) [08B27F7A]
(AR v2)
Track 13 accurately ripped (confidence 122) [897653C7]
(AR v2)

All tracks accurately ripped

End of status report

—- CUETools DB Plugin V2.1.3

[CTDB TOCID: w9F4JBPZfXBSA5hZ_nMvzIZxoCQ-]
found, Submit result: w9F4JBPZfXBSA5hZ_nMvzIZxoCQ-
has been confirmed
[90f0f5af] (704/732) Accurately ripped
[d08fe270] (001/732) No match
[26657d67] (001/732) No match
[a503e30e] (001/732) No match
[30c472ab] (001/732) No match
[068174cd] (001/732) No match
[70f42bf2] (001/732) No match
[07ff8ef4] (001/732) No match
[3f00c71e] (001/732) No match
[5da60adf] (001/732) No match
[92b9df11] (001/732) No match
[291aadc3] (001/732) No match
[080659eb] (001/732) No match
[6a9b0193] (001/732) No match
[d1b9118a] (001/732) No match
[a6787e5b] (001/732) No match
[59eca8fe] (001/732) No match
[e39bb263] (001/732) No match
[ba848fda] (001/732) No match
[883a4c6a] (001/732) No match
[db8bcadb] (001/732) No match
[d0ec1b0e] (001/732) No match
[9cff4afa] (001/732) No match
[d08e40cc] (001/732) No match
[836055c5] (001/732) No match
[7597d011] (001/732) No match
[4431b30c] (001/732) No match
[464a88a2] (001/732) No match
[dc7fb8a6] (001/732) No match

==== Log checksum
5C9D8C2A524175DD200B88224A4D27F602C0380F7282
290DC8DB35FCF78537EA ====

Exact Audio Copy V1.0 beta 3 from 29. August 2011

EAC extraction logfile from 15. December 2012, 19:34

Led Zeppelin / Mothership disc 2

Used drive : MATSHITADVD-RAM UJ-850S Adapter: 1
ID: 0

Read mode : Secure
Utilize accurate stream : Yes
Defeat audio cache : Yes
Make use of C2 pointers : No

Read offset correction : 102
Overread into Lead-In and Lead-Out : No
Fill up missing offset samples with silence : Yes
Delete leading and trailing silent blocks : No
Null samples used in CRC calculations : Yes
Used interface : Native Win32 interface
for Win NT & 2000

Used output format : User Defined Encoder
Selected bitrate : 128 kBit/s
Quality : High
Add ID3 tag : No
Command line compressor : C:\Program Files\Exact
Audio Copy\Flac\flac.exe
Additional command line options : -V -8 -T “Date=%
year%” -T “Genre=%genre%” %source%

TOC of the extracted CD

Track | Start | Length | Start sector | End sector
———————————————————
1 | 0:00.00 | 5:32.00 | 0 | 24899
2 | 5:32.00 | 4:49.10 | 24900 | 46584
3 | 10:21.10 | 4:23.62 | 46585 | 66371
4 | 14:44.72 | 7:00.05 | 66372 | 97876
5 | 21:45.02 | 5:36.17 | 97877 | 123093
6 | 27:21.19 | 4:04.34 | 123094 | 141427
7 | 31:25.53 | 8:29.44 | 141428 | 179646
8 | 39:55.22 | 6:16.21 | 179647 | 207867
9 | 46:11.43 | 10:23.11 | 207868 | 254603
10 | 56:34.54 | 6:51.14 | 254604 | 285442
11 | 63:25.68 | 5:53.50 | 285443 | 311967

Range status and errors

Selected range

Filename C:\Users\ALIK\Desktop\music\2012. 10
LIMITED CELEBRATION DAY VERSION CD SET-JAPAN CD
AP50\2007. Led Zeppelin – Mothership\disc2\Led
Zeppelin – Mothership disc 2.wav

Peak level 99.8 %
Extraction speed 2.7 X
Range quality 100.0 %
Test CRC 48A995E7
Copy CRC 48A995E7
Copy OK

No errors occurred

AccurateRip summary

Track 1 accurately ripped (confidence 101) [75A0D282]
(AR v2)
Track 2 accurately ripped (confidence 103) [FB1BB260]
(AR v2)
Track 3 accurately ripped (confidence 103) [1E70A62F]
(AR v2)
Track 4 accurately ripped (confidence 102) [BCBE6E87]
(AR v2)
Track 5 accurately ripped (confidence 101) [C14D7F2C]
(AR v2)
Track 6 accurately ripped (confidence 103) [227F19A3]
(AR v2)
Track 7 accurately ripped (confidence 102) [AD1F7521]
(AR v2)
Track 8 accurately ripped (confidence 102) [AE4E2C1E]
(AR v2)
Track 9 accurately ripped (confidence 100) [B4D00F40]
(AR v2)
Track 10 accurately ripped (confidence 101) [94B942EA]
(AR v2)
Track 11 accurately ripped (confidence 101)
[05DE6D32] (AR v2)

All tracks accurately ripped

End of status report

—- CUETools DB Plugin V2.1.3

[CTDB TOCID: dvKna6KrsB26An5AIJxH7gKo350-] found,
Submit result: dvKna6KrsB26An5AIJxH7gKo350- has
been confirmed
[31a3aaa0] (765/775) Accurately ripped
[e1222a76] (001/775) No match
[221984c4] (001/775) No match
[d68c11b7] (001/775) No match
[780e411a] (001/775) No match
[b1eebcca] (001/775) No match
[b82b7022] (001/775) No match
[fac47cc3] (001/775) No match
[ede26b52] (001/775) No match
[bde7d4b5] (001/775) No match
[24379799] (001/775) No match

==== Log checksum
3DC2C7B86EDBF83B46149AD096C4C53A382857404892
F1E56C460DF94CAAAE11 ====

REM GENRE “Hard Rock”
REM DATE 2007
REM DISCID B20F880D
REM COMMENT “ExactAudioCopy v1.0b3”
CATALOG 4943674075683
PERFORMER “Led Zeppelin”
TITLE “Mothership disc 1”
FILE “Led Zeppelin – Mothership disc 1.flac” WAVE
TRACK 01 AUDIO
TITLE “Good Times Bad Times”
PERFORMER “Led Zeppelin”
ISRC USAT20703863
INDEX 01 00:00:00
TRACK 02 AUDIO
TITLE “Communication Breakdown”
PERFORMER “Led Zeppelin”
ISRC USAT20703864
INDEX 00 02:47:08
INDEX 01 02:47:40
TRACK 03 AUDIO
TITLE “Dazed And Confused”
PERFORMER “Led Zeppelin”
ISRC USAT20703865
INDEX 00 05:15:33
INDEX 01 05:16:06
TRACK 04 AUDIO
TITLE “Babe I’m Gonna Leave You”
PERFORMER “Led Zeppelin”
ISRC USAT20703866
INDEX 00 11:42:51
INDEX 01 11:44:13
TRACK 05 AUDIO
TITLE “Whole Lotta Love”
PERFORMER “Led Zeppelin”
ISRC USAT20703867
INDEX 00 18:25:37
INDEX 01 18:26:10
TRACK 06 AUDIO
TITLE “Ramble On”
PERFORMER “Led Zeppelin”
ISRC USAT20703868
INDEX 00 23:58:52
INDEX 01 23:59:06
TRACK 07 AUDIO
TITLE “Heartbreaker”
PERFORMER “Led Zeppelin”
ISRC USAT20703869
INDEX 00 28:20:73
INDEX 01 28:21:28
TRACK 08 AUDIO
TITLE “Immigrant Song”
PERFORMER “Led Zeppelin”
ISRC USAT20703870
INDEX 00 32:36:11
INDEX 01 32:36:70
TRACK 09 AUDIO
TITLE “Since I’ve Been Loving You”
PERFORMER “Led Zeppelin”
ISRC USAT20703871
INDEX 00 35:02:70
INDEX 01 35:03:64
TRACK 10 AUDIO
TITLE “Rock And Roll”
PERFORMER “Led Zeppelin”
ISRC USAT20703872
INDEX 00 42:27:02
INDEX 01 42:27:61
TRACK 11 AUDIO
TITLE “Black Dog”
PERFORMER “Led Zeppelin”
ISRC USAT20703873
INDEX 00 46:08:30
INDEX 01 46:09:02
TRACK 12 AUDIO
TITLE “When The Levee Breaks”
PERFORMER “Led Zeppelin”
ISRC USAT20703874
INDEX 00 51:03:29
INDEX 01 51:03:71
TRACK 13 AUDIO
TITLE “Stairway To Heaven”
PERFORMER “Led Zeppelin”
ISRC USAT20703875
INDEX 00 58:12:01
INDEX 01 58:14:16

REM GENRE “Hard Rock”
REM DATE 2007
REM DISCID AD103F0B
REM COMMENT “ExactAudioCopy v1.0b3”
CATALOG 4943674075683
PERFORMER “Led Zeppelin”
TITLE “Mothership disc 2”
FILE “Led Zeppelin – Mothership disc 2.flac” WAVE
TRACK 01 AUDIO
TITLE “The Song Remains the Same”
PERFORMER “Led Zeppelin”
ISRC USAT20703876
INDEX 01 00:00:00
TRACK 02 AUDIO
TITLE “Over the Hills and Far Away”
PERFORMER “Led Zeppelin”
ISRC USAT20703877
INDEX 00 05:30:60
INDEX 01 05:32:00
TRACK 03 AUDIO
TITLE “D’Yer Mak’er”
PERFORMER “Led Zeppelin”
ISRC USAT20703878
INDEX 00 10:20:19
INDEX 01 10:21:10
TRACK 04 AUDIO
TITLE “No Quarter”
PERFORMER “Led Zeppelin”
ISRC USAT20703879
INDEX 00 14:43:15
INDEX 01 14:44:72
TRACK 05 AUDIO
TITLE “Trampled Under Foot”
PERFORMER “Led Zeppelin”
ISRC USAT20703880
INDEX 00 21:43:59
INDEX 01 21:45:02
TRACK 06 AUDIO
TITLE “Houses of the Holy”
PERFORMER “Led Zeppelin”
ISRC USAT20703881
INDEX 00 27:20:29
INDEX 01 27:21:19
TRACK 07 AUDIO
TITLE “Kashmir”
PERFORMER “Led Zeppelin”
ISRC USAT20703882
INDEX 00 31:23:42
INDEX 01 31:25:53
TRACK 08 AUDIO
TITLE “Nobody’s Fault But Mine”
PERFORMER “Led Zeppelin”
ISRC USAT20703883
INDEX 00 39:53:67
INDEX 01 39:55:22
TRACK 09 AUDIO
TITLE “Achilles Last Stand”
PERFORMER “Led Zeppelin”
ISRC USAT20703884
INDEX 00 46:10:56
INDEX 01 46:11:43
TRACK 10 AUDIO
TITLE “In the Evening”
PERFORMER “Led Zeppelin”
ISRC USAT20703885
INDEX 00 56:33:61
INDEX 01 56:34:54
TRACK 11 AUDIO
TITLE “All My Love”
PERFORMER “Led Zeppelin”
ISRC USAT20703886
INDEX 00 63:24:07
INDEX 01 63:25:68


0

Publication author

offline 10 hours

Chaos

3
Comments: 3Publics: 3189Registration: 02-02-2019
Spread the Download

Leave a Reply

Your email address will not be published. Required fields are marked *

Enter the text from the image below
 

This site uses Akismet to reduce spam. Learn how your comment data is processed.