Led Zeppelin – Led Zeppelin IV




No Cover available

Artist: Led Zeppelin
Year: 1971
Genre: Rock
Notes: Discogs
Add. Notes:
Watch Songs on: YouTube
Cover incl.: Yes
Encoder: FLAC
Bitrate: ~800 kBit/s (44.1 kHz/16 Bit/s)
Log & Cue incl.: Yes/Yes
Size: 348,9 MB
Password: “slam” (without ” “)


All Downloads/Hosters are compatible

Download 1
KatFile.com
Turbobit.net
Rapidgator.net
FileFactory.com
Download 2
KatFile.com
Turbobit.net
Rapidgator.net
FileFactory.com

Tracklist:

1 Black Dog 4:57
2 Rock And Roll 3:40
3 The Battle Of Evermore 5:51
4 Stairway To Heaven 8:01
5 Misty Mountain Hop 4:38
6 Four Sticks 4:44
7 Going To California 3:35
8 When The Levee Breaks 7:07

EAC-Log, CUE-Sheed & NFO:

Click to open spoiler
Exact Audio Copy V1.0 beta 3 from 29. August 2011

EAC extraction logfile from 18. November 2013, 9:47

Led Zeppelin / IV

Used drive : PLEXTOR DVDR PX-L890SA Adapter: 1 ID: 0

Read mode : Secure
Utilize accurate stream : Yes
Defeat audio cache : Yes
Make use of C2 pointers : No

Read offset correction : 6
Overread into Lead-In and Lead-Out : No
Fill up missing offset samples with silence : Yes
Delete leading and trailing silent blocks : No
Null samples used in CRC calculations : Yes
Used interface : Native Win32 interface for Win NT & 2000

Used output format : User Defined Encoder
Selected bitrate : 768 kBit/s
Quality : High
Add ID3 tag : No
Command line compressor : G:\Program Files\Exact Audio Copy\FLAC\FLAC.EXE
Additional command line options : -V -8 -T “Date=%year%” -T “Genre=%genre%” %source%

TOC of the extracted CD

Track | Start | Length | Start sector | End sector
———————————————————
1 | 0:00.32 | 4:58.20 | 32 | 22401
2 | 4:58.52 | 3:41.13 | 22402 | 38989
3 | 8:39.65 | 5:51.45 | 38990 | 65359
4 | 14:31.35 | 8:02.00 | 65360 | 101509
5 | 22:33.35 | 4:38.42 | 101510 | 122401
6 | 27:12.02 | 4:44.65 | 122402 | 143766
7 | 31:56.67 | 3:35.60 | 143767 | 159951
8 | 35:32.52 | 7:08.13 | 159952 | 192064

Range status and errors

Selected range

Filename H:\MUSIC\1971. Led Zeppelin – IV (Atlantic 19129-2, Germany, Target CD)\Led Zeppelin – IV.wav

Peak level 84.8 %
Extraction speed 5.4 X
Range quality 100.0 %
Test CRC E63B4DBD
Copy CRC E63B4DBD
Copy OK

No errors occurred

AccurateRip summary

Track 1 accurately ripped (confidence 45) [4A7774AE] (AR v2)
Track 2 accurately ripped (confidence 45) [7B3B45DA] (AR v2)
Track 3 accurately ripped (confidence 45) [4FD96F65] (AR v2)
Track 4 accurately ripped (confidence 44) [4985D479] (AR v2)
Track 5 accurately ripped (confidence 45) [1E793ED4] (AR v2)
Track 6 accurately ripped (confidence 46) [0EA27C83] (AR v2)
Track 7 accurately ripped (confidence 43) [F71986FC] (AR v2)
Track 8 accurately ripped (confidence 42) [80E43B08] (AR v2)

All tracks accurately ripped

End of status report

—- CUETools DB Plugin V2.1.3

[CTDB TOCID: mi03W6P1BGqBYgDf6OJKILoAVmc-] found, Submit result: discs with pregaps not supported in this protocol version
[d328becc] (117/117) Differs in 4262 samples @00:00:38-00:00:41
You can use CUETools to repair this rip.

==== Log checksum 7F83AEB508DE6FEBF7264E857BA95608A1742972C78EA4B70CA5DEEADA90813B ====

REM GENRE “Classic Rock”
REM DATE 1971
REM DISCID 580A0008
REM COMMENT “ExactAudioCopy v1.0b3”
PERFORMER “Led Zeppelin”
TITLE “IV”
FILE “Led Zeppelin – IV.flac” WAVE
TRACK 01 AUDIO
TITLE “Black Dog”
PERFORMER “Led Zeppelin”
INDEX 00 00:00:00
INDEX 01 00:00:32
TRACK 02 AUDIO
TITLE “Rock And Roll”
PERFORMER “Led Zeppelin”
INDEX 00 04:56:11
INDEX 01 04:58:52
TRACK 03 AUDIO
TITLE “The Battle Of Evermore”
PERFORMER “Led Zeppelin”
INDEX 00 08:39:62
INDEX 01 08:39:65
TRACK 04 AUDIO
TITLE “Stairway To Heaven”
PERFORMER “Led Zeppelin”
INDEX 00 14:31:32
INDEX 01 14:31:35
TRACK 05 AUDIO
TITLE “Misty Mountain Hop”
PERFORMER “Led Zeppelin”
INDEX 00 22:31:57
INDEX 01 22:33:35
TRACK 06 AUDIO
TITLE “Four Sticks”
PERFORMER “Led Zeppelin”
INDEX 00 27:11:59
INDEX 01 27:12:02
TRACK 07 AUDIO
TITLE “Going To California”
PERFORMER “Led Zeppelin”
INDEX 00 31:55:64
INDEX 01 31:56:67
TRACK 08 AUDIO
TITLE “When The Levee Breaks”
PERFORMER “Led Zeppelin”
INDEX 00 35:32:49
INDEX 01 35:32:52


Leave a Reply

Your email address will not be published. Required fields are marked *

This site uses Akismet to reduce spam. Learn how your comment data is processed.