Led Zeppelin – Led Zeppelin IV (Remastered)




[Total: 0    Average: 0/5]

Artist: Led Zeppelin
Year: 1971/1993
Genre: Rock
Notes: Discogs
Add. Notes: Remastered
Cover incl.: Yes
Encoder: FLAC
Bitrate: ~900 kBit/s (44.1 kHz/16 Bit/s)
Log & Cue incl.: Yes
Size: 506,48 MB
Password: “slam” (without ” “)


All Downloads/Hosters are compatible

Download 1
Share-online.biz
KatFile.com
Rapidgator.net
DoUploads.net
Download 2
Share-online.biz
KatFile.com
Rapidgator.net
DoUploads.net

Tracklist:

1  - Black Dog  - 4:54
2  - Rock And Roll  - 3:40
3  - The Battle Of Evermore  - 5:51
4  - Stairway To Heaven  - 8:00
5  - Misty Mountain Hop  - 4:38
6  - Four Sticks  - 4:44
7  - Going To California  - 3:31
8  - When The Levee Breaks  - 7:07

EAC-Log, CUE-Sheed & NFO:

Click to open spoiler
Exact Audio Copy V1.0 beta 3 from 29. August 2011

EAC extraction logfile from 5. December 2013, 19:08

Led Zeppelin / Led Zeppelin IV

Used drive : PLEXTOR DVDR PX-L890SA Adapter: 1 ID: 0

Read mode : Secure
Utilize accurate stream : Yes
Defeat audio cache : Yes
Make use of C2 pointers : No

Read offset correction : 6
Overread into Lead-In and Lead-Out : No
Fill up missing offset samples with silence : Yes
Delete leading and trailing silent blocks : No
Null samples used in CRC calculations : Yes
Used interface : Native Win32 interface for Win NT & 2000

Used output format : User Defined Encoder
Selected bitrate : 768 kBit/s
Quality : High
Add ID3 tag : No
Command line compressor : G:\Program Files\Exact Audio Copy\FLAC\FLAC.EXE
Additional command line options : -V -8 -T “Date=%year%” -T “Genre=%genre%” %source%

TOC of the extracted CD

Track | Start | Length | Start sector | End sector
———————————————————
1 | 0:00.32 | 4:57.00 | 32 | 22306
2 | 4:57.32 | 3:40.68 | 22307 | 38874
3 | 8:38.25 | 5:52.10 | 38875 | 65284
4 | 14:30.35 | 8:03.00 | 65285 | 101509
5 | 22:33.35 | 4:38.67 | 101510 | 122426
6 | 27:12.27 | 4:45.18 | 122427 | 143819
7 | 31:57.45 | 3:31.40 | 143820 | 159684
8 | 35:29.10 | 7:07.45 | 159685 | 191754

Range status and errors

Selected range

Filename H:\MUSIC\Complete Studio Record (USA)\1971. Led Zeppelin IV\Led Zeppelin IV.wav

Peak level 100.0 %
Extraction speed 5.8 X
Range quality 99.9 %
Test CRC DFD30922
Copy CRC DFD30922
Copy OK

No errors occurred

AccurateRip summary

Track 1 accurately ripped (confidence 66) [777023F5] (AR v2)
Track 2 accurately ripped (confidence 65) [6B5B4395] (AR v2)
Track 3 accurately ripped (confidence 66) [A779EC60] (AR v2)
Track 4 accurately ripped (confidence 65) [DE1E7EEF] (AR v2)
Track 5 accurately ripped (confidence 65) [2EA283DB] (AR v2)
Track 6 accurately ripped (confidence 66) [1EC226FE] (AR v2)
Track 7 accurately ripped (confidence 66) [CB50BD05] (AR v2)
Track 8 accurately ripped (confidence 64) [C6A0B501] (AR v2)

All tracks accurately ripped

End of status report

—- CUETools DB Plugin V2.1.3

[CTDB TOCID: iCb1KYDsOskSjmTxR8ccq9HvWe8-] found, Submit result: discs with pregaps not supported in this protocol version
[f547a07d] (325/325) Differs in 0 samples @
You can use CUETools to repair this rip.

==== Log checksum 093E1EF390F7F212F11A926C7AF8EAC58D256FA070DBBD160101B9D59B37EEB3 ====

REM GENRE Rock
REM DATE 1971
REM DISCID 6509FC08
REM COMMENT “ExactAudioCopy v1.0b3”
PERFORMER “Led Zeppelin”
TITLE “Led Zeppelin IV”
FILE “Led Zeppelin IV.flac” WAVE
TRACK 01 AUDIO
TITLE “Black Dog”
PERFORMER “Led Zeppelin”
INDEX 00 00:00:00
INDEX 01 00:00:32
TRACK 02 AUDIO
TITLE “Rock And Roll”
PERFORMER “Led Zeppelin”
INDEX 00 04:54:42
INDEX 01 04:57:32
TRACK 03 AUDIO
TITLE “The Battle Of Evermore”
PERFORMER “Led Zeppelin”
INDEX 00 08:37:29
INDEX 01 08:38:25
TRACK 04 AUDIO
TITLE “Stairway To Heaven”
PERFORMER “Led Zeppelin”
INDEX 00 14:29:64
INDEX 01 14:30:35
TRACK 05 AUDIO
TITLE “Misty Mountain Hop”
PERFORMER “Led Zeppelin”
INDEX 00 22:30:42
INDEX 01 22:33:35
TRACK 06 AUDIO
TITLE “Four Sticks”
PERFORMER “Led Zeppelin”
INDEX 00 27:11:72
INDEX 01 27:12:27
TRACK 07 AUDIO
TITLE “Going To California”
PERFORMER “Led Zeppelin”
INDEX 00 31:56:49
INDEX 01 31:57:45
TRACK 08 AUDIO
TITLE “When The Levee Breaks”
PERFORMER “Led Zeppelin”
INDEX 00 35:28:17
INDEX 01 35:29:10


Spread the Download

Leave a Reply

Your email address will not be published. Required fields are marked *

Enter the text from the image below
 

This site uses Akismet to reduce spam. Learn how your comment data is processed.