Led Zeppelin – Led Zeppelin IV (Remastered)




No Cover available

Artist: Led Zeppelin
Year: 1971/1994
Genre: Rock
Notes: Discogs
Add. Notes: Remastered
Watch Songs on: YouTube
Cover incl.: Yes
Encoder: FLAC
Bitrate: ~900 kBit/s (44.1 kHz/16 Bit/s)
Log & Cue incl.: Yes/Yes
Size: 415 MB
Password: “slam” (without ” “)


All Downloads/Hosters are compatible

Download 1
KatFile.com
Turbobit.net
Rapidgator.net
FileFactory.com
Download 2
KatFile.com
Turbobit.net
Rapidgator.net
FileFactory.com

Tracklist:

1 Black Dog 4:56
2 Rock And Roll 3:40
3 The Battle Of Evermore 5:51
4 Stairway To Heaven 8:02
5 Misty Mountain Hop 4:38
6 Four Sticks 4:44
7 Going To California 3:31
8 When The Levee Breaks 7:07

EAC-Log, CUE-Sheed & NFO:

Click to open spoiler
Exact Audio Copy V0.99 prebeta 5 from 4. May 2009

Отчёт EAC об извлечении, выполненном 22. июля 2009, 18:09

Led Zeppelin / Led Zeppelin IV

Дисковод: MATSHITADVD-RAM UJ-850S Adapter: 1 ID: 0

Режим чтения : Достоверность
Использование точного потока : Да
Отключение кэша аудио : Да
Использование указателей C2 : Нет

Коррекция смещения при чтении : 102
Способность читать области Lead-in и Lead-out : Нет
Заполнение пропущенных сэмплов тишиной : Да
Удаление блоков с тишиной в начале и конце : Нет
При вычислениях CRC использовались нулевые сэмплы : Да
Интерфейс : Встроенный Win32-интерфейс для Win NT/2000

Выходной формат : Пользовательский кодировщик
Выбранный битрейт : 1024 kBit/s
Качество : Высокий
Добавление ID3-тэга : Нет
Утилита сжатия : C:\Program Files\Exact Audio Copy\Flac\flac.exe
Дополнительные параметры : -8 -V -T “ARTIST=%a” -T “TITLE=%t” -T “ALBUM=%g” -T “DATE=%y” -T “TRACKNUMBER=%n” -T “TOTALTRACKS=%x” -T “GENRE=%m” -T “ALBUM ARTIST=%v” -T “ALBUMARTIST=%v” -T “COMMENT=EAC V0.99 prebeta 5, Secure Mode, AccurateRip, FLAC -8” %s

TOC извлечённого CD

Трек | Старт | Длительность | Начальный сектор | Конечный сектор
———————————————————————
1 | 0:00.32 | 4:57.00 | 32 | 22306
2 | 4:57.32 | 3:40.53 | 22307 | 38859
3 | 8:38.10 | 5:52.22 | 38860 | 65281
4 | 14:30.32 | 8:03.00 | 65282 | 101506
5 | 22:33.32 | 4:38.68 | 101507 | 122424
6 | 27:12.25 | 4:45.12 | 122425 | 143811
7 | 31:57.37 | 3:31.48 | 143812 | 159684
8 | 35:29.10 | 7:08.27 | 159685 | 191811

Характеристики диапазона извлечения и сообщения об ошибках

Выбранный диапазон

Имя файла C:\Users\ALIK\Desktop\music\Led Zeppellin\LZ IV\Led Zeppelin – Led Zeppelin IV.wav

Пиковый уровень 100.0 %
Качество диапазона 100.0 %
CRC теста 192E71F5
CRC копии 192E71F5
Копирование… OK

Ошибок не произошло

AccurateRip: сводка

Трек 1 точное извлечение (доверие 97) [C82B0A10]
Трек 2 точное извлечение (доверие 98) [1DA09107]
Трек 3 точное извлечение (доверие 99) [3E2A2307]
Трек 4 точное извлечение (доверие 95) [966FCE8D]
Трек 5 точное извлечение (доверие 96) [080F1089]
Трек 6 точное извлечение (доверие 94) [93A189DE]
Трек 7 точное извлечение (доверие 94) [B513F8CC]
Трек 8 точное извлечение (доверие 96) [F148C6F2]

Все треки извлечены точно

Конец отчёта

REM GENRE “Classic Rock”
REM DATE 1971
REM DISCID 6509FD08
REM COMMENT “ExactAudioCopy v0.99pb5”
PERFORMER “Led Zeppelin”
TITLE “Led Zeppelin IV”
FILE “Led Zeppelin – Led Zeppelin IV.flac” WAVE
TRACK 01 AUDIO
TITLE “Black Dog”
PERFORMER “Led Zeppelin”
INDEX 00 00:00:00
INDEX 01 00:00:32
TRACK 02 AUDIO
TITLE “Rock And Roll”
PERFORMER “Led Zeppelin”
INDEX 00 04:54:49
INDEX 01 04:57:32
TRACK 03 AUDIO
TITLE “The Battle Of Evermore”
PERFORMER “Led Zeppelin”
INDEX 00 08:37:42
INDEX 01 08:38:10
TRACK 04 AUDIO
TITLE “Stairway To Heaven”
PERFORMER “Led Zeppelin”
INDEX 00 14:30:07
INDEX 01 14:30:32
TRACK 05 AUDIO
TITLE “Misty Mountain Hop”
PERFORMER “Led Zeppelin”
INDEX 00 22:30:52
INDEX 01 22:33:32
TRACK 06 AUDIO
TITLE “Four Sticks”
PERFORMER “Led Zeppelin”
INDEX 00 27:12:02
INDEX 01 27:12:25
TRACK 07 AUDIO
TITLE “Going To California”
PERFORMER “Led Zeppelin”
INDEX 00 31:56:47
INDEX 01 31:57:37
TRACK 08 AUDIO
TITLE “When The Levee Breaks”
PERFORMER “Led Zeppelin”
INDEX 00 35:28:29
INDEX 01 35:29:10


0

Publication author

offline 9 hours

Chaos

3
Comments: 4Publics: 3424Registration: 02-02-2019
Spread the Download

Leave a Reply

Your email address will not be published. Required fields are marked *

Enter the text from the image below
 

This site uses Akismet to reduce spam. Learn how your comment data is processed.