Led Zeppelin – Led Zeppelin IV (Remastered)




No Cover available

Artist: Led Zeppelin
Year: 1971
Genre: Rock
Notes: Discogs
Add. Notes: Remastered
Watch Songs on: YouTube
Cover incl.: Yes
Encoder: FLAC
Bitrate: ~900 kBit/s (44.1 kHz/16 Bit/s)
Log & Cue incl.: Yes/Yes
Size: 407,5 MB
Password: “slam” (without ” “)


All Downloads/Hosters are compatible

Download 1
KatFile.com
Turbobit.net
FileFactory.com
Rapidgator.net
Download 2
KatFile.com
Turbobit.net
FileFactory.com
Rapidgator.net

Tracklist:

1 Black Dog 4:54
2 Rock And Roll 3:40
3 The Battle Of Evermore 5:51
4 Stairway To Heaven 8:00
5 Misty Mountain Hop 4:38
6 Four Sticks 4:44
7 Going To California 3:31
8 When The Levee Breaks 7:07

EAC-Log, CUE-Sheed & NFO:

Click to open spoiler
Exact Audio Copy V0.99 prebeta 5 from 4. May 2009

EAC extraction logfile from 3. August 2013, 16:53

Led Zeppelin / Led Zeppelin IV

Used drive : PLEXTOR DVDR PX-L890SA Adapter: 1 ID: 0

Read mode : Secure
Utilize accurate stream : Yes
Defeat audio cache : Yes
Make use of C2 pointers : No

Read offset correction : 6
Overread into Lead-In and Lead-Out : No
Fill up missing offset samples with silence : Yes
Delete leading and trailing silent blocks : No
Null samples used in CRC calculations : Yes
Used interface : Native Win32 interface for Win NT & 2000

Used output format : User Defined Encoder
Selected bitrate : 768 kBit/s
Quality : High
Add ID3 tag : No
Command line compressor : d:\Program Files\Exact Audio Copy\FLAC\FLAC.EXE
Additional command line options : -T “DATE=%y” -T “GENRE=%m” -8 -V %s

TOC of the extracted CD

Track | Start | Length | Start sector | End sector
———————————————————
1 | 0:00.00 | 4:57.08 | 0 | 22282
2 | 4:57.08 | 3:40.60 | 22283 | 38842
3 | 8:37.68 | 5:52.20 | 38843 | 65262
4 | 14:30.13 | 8:03.02 | 65263 | 101489
5 | 22:33.15 | 4:38.65 | 101490 | 122404
6 | 27:12.05 | 4:45.13 | 122405 | 143792
7 | 31:57.18 | 3:31.42 | 143793 | 159659
8 | 35:28.60 | 7:08.28 | 159660 | 191787

Range status and errors

Selected range

Filename H:\MUSIC\COLLECTION\Led Zeppelin\Remaster 2004\1971 Led Zeppelin IV\Led Zeppelin – Led Zeppelin IV.wav

Peak level 100.0 %
Range quality 100.0 %
Test CRC 2317D70E
Copy CRC 2317D70E
Copy OK

No errors occurred

AccurateRip summary

Track 1 accurately ripped (confidence 200) [B874DF94]
Track 2 accurately ripped (confidence 200) [B1B3D918]
Track 3 accurately ripped (confidence 200) [DCCD5236]
Track 4 accurately ripped (confidence 200) [EE4EE1F7]
Track 5 accurately ripped (confidence 200) [1762BD81]
Track 6 accurately ripped (confidence 200) [9BEAA53D]
Track 7 accurately ripped (confidence 200) [9472A895]
Track 8 accurately ripped (confidence 200) [5D622421]

All tracks accurately ripped

End of status report

REM GENRE Rock
REM DATE 1971
REM DISCID 6C09FD08
REM COMMENT “ExactAudioCopy v0.99pb5”
PERFORMER “Led Zeppelin”
TITLE “Led Zeppelin IV”
FILE “Led Zeppelin – Led Zeppelin IV.flac” WAVE
TRACK 01 AUDIO
TITLE “Black Dog”
PERFORMER “Led Zeppelin”
INDEX 01 00:00:00
TRACK 02 AUDIO
TITLE “Rock and Roll”
PERFORMER “Led Zeppelin”
INDEX 00 04:54:40
INDEX 01 04:57:08
TRACK 03 AUDIO
TITLE “The Battle of Evermore”
PERFORMER “Led Zeppelin”
INDEX 00 08:37:28
INDEX 01 08:37:68
TRACK 04 AUDIO
TITLE “Stairway to Heaven”
PERFORMER “Led Zeppelin”
INDEX 00 14:29:18
INDEX 01 14:30:13
TRACK 05 AUDIO
TITLE “Misty Mountain Hop”
PERFORMER “Led Zeppelin”
INDEX 00 22:30:28
INDEX 01 22:33:15
TRACK 06 AUDIO
TITLE “Four Sticks”
PERFORMER “Led Zeppelin”
INDEX 00 27:11:63
INDEX 01 27:12:05
TRACK 07 AUDIO
TITLE “Going to California”
PERFORMER “Led Zeppelin”
INDEX 00 31:56:18
INDEX 01 31:57:18
TRACK 08 AUDIO
TITLE “When The Levee Breaks”
PERFORMER “Led Zeppelin”
INDEX 00 35:28:00
INDEX 01 35:28:60


Leave a Reply

Your email address will not be published. Required fields are marked *

This site uses Akismet to reduce spam. Learn how your comment data is processed.