Led Zeppelin – Led Zeppelin IV (Reissue)




Artist: Led Zeppelin
Year: 1971/1984
Genre: Rock
Notes: Discogs
Add. Notes: Reissue
Cover incl.: Yes
Encoder: FLAC
Bitrate: ~800 kBit/s (44.1 kHz/16 Bit/s)
Log & Cue incl.: Yes
Size: 337 MB
Password: “slam” (without ” “)


All Downloads/Hosters are compatible

Download 1
KatFile.com
Turbobit.net
Rapidgator.net
FileFactory.com
Download 2
KatFile.com
Turbobit.net
Rapidgator.net
FileFactory.com

Tracklist:

1 - Black Dog - 4:57
2 - Rock And Roll - 3:40
3 - The Battle Of Evermore - 5:51
4 - Stairway To Heaven - 8:01
5 - Misty Mountain Hop - 4:38
6 - Four Sticks - 4:44
7 - Going To California - 3:35
8 - When The Levee Breaks - 7:07

EAC-Log, CUE-Sheed & NFO:

Click to open spoiler
Exact Audio Copy V1.0 beta 3 from 29. August 2011

EAC extraction logfile from 22. February 2014, 14:10

Led Zeppelin / IV

Used drive : PLEXTOR DVDR PX-L890SA Adapter: 1 ID: 0

Read mode : Secure
Utilize accurate stream : Yes
Defeat audio cache : Yes
Make use of C2 pointers : No

Read offset correction : 6
Overread into Lead-In and Lead-Out : No
Fill up missing offset samples with silence : Yes
Delete leading and trailing silent blocks : No
Null samples used in CRC calculations : Yes
Used interface : Native Win32 interface for Win NT & 2000

Used output format : User Defined Encoder
Selected bitrate : 768 kBit/s
Quality : High
Add ID3 tag : No
Command line compressor : G:\Program Files\Exact Audio Copy\FLAC\FLAC.EXE
Additional command line options : -V -8 -T “Date=%year%” -T “Genre=%genre%” %source%

TOC of the extracted CD

Track | Start | Length | Start sector | End sector
———————————————————
1 | 0:00.33 | 4:56.42 | 33 | 22274
2 | 4:57.00 | 3:40.63 | 22275 | 38837
3 | 8:37.63 | 5:51.35 | 38838 | 65197
4 | 14:29.23 | 8:01.40 | 65198 | 101312
5 | 22:30.63 | 4:38.57 | 101313 | 122219
6 | 27:09.45 | 4:44.28 | 122220 | 143547
7 | 31:53.73 | 3:35.45 | 143548 | 159717
8 | 35:29.43 | 7:07.57 | 159718 | 191799

Range status and errors

Selected range

Filename H:\MUSIC\LZ\1971. Led Zeppelin – IV (Atlantic 19129-2, USA)\Led Zeppelin – IV.wav

Peak level 84.8 %
Extraction speed 5.9 X
Range quality 100.0 %
Test CRC D3CB11BF
Copy CRC D3CB11BF
Copy OK

No errors occurred

AccurateRip summary

Track 1 accurately ripped (confidence 28) [D94DE5BF] (AR v2)
Track 2 accurately ripped (confidence 30) [793C1017] (AR v2)
Track 3 accurately ripped (confidence 27) [08E212D2] (AR v2)
Track 4 accurately ripped (confidence 28) [4452EE69] (AR v2)
Track 5 accurately ripped (confidence 30) [C576C3D3] (AR v2)
Track 6 accurately ripped (confidence 31) [53A017F9] (AR v2)
Track 7 accurately ripped (confidence 30) [047EC586] (AR v2)
Track 8 accurately ripped (confidence 28) [0066518B] (AR v2)

All tracks accurately ripped

End of status report

—- CUETools DB Plugin V2.1.3

[CTDB TOCID: ty6OBM_irrTmpNzXgasu0NIBlhM-] found, Submit result: discs with pregaps not supported in this protocol version
[a1cbd94b] (217/217) Differs in 0 samples @
You can use CUETools to repair this rip.

==== Log checksum 2DF9DE3079F1222DFC3962E24822947DA978EA1B64CF44E7CB1137F24396E4D9 ====

REM GENRE “Classic Rock”
REM DATE 1971
REM DISCID 6209FD08
REM COMMENT “ExactAudioCopy v1.0b3”
PERFORMER “Led Zeppelin”
TITLE “IV”
FILE “Led Zeppelin – IV.flac” WAVE
TRACK 01 AUDIO
TITLE “Black Dog”
PERFORMER “Led Zeppelin”
INDEX 00 00:00:00
INDEX 01 00:00:33
TRACK 02 AUDIO
TITLE “Rock And Roll”
PERFORMER “Led Zeppelin”
INDEX 00 04:53:27
INDEX 01 04:57:00
TRACK 03 AUDIO
TITLE “The Battle Of Evermore”
PERFORMER “Led Zeppelin”
INDEX 00 08:37:33
INDEX 01 08:37:63
TRACK 04 AUDIO
TITLE “Stairway To Heaven”
PERFORMER “Led Zeppelin”
INDEX 00 14:28:18
INDEX 01 14:29:23
TRACK 05 AUDIO
TITLE “Misty Mountain Hop”
PERFORMER “Led Zeppelin”
INDEX 00 22:27:53
INDEX 01 22:30:63
TRACK 06 AUDIO
TITLE “Four Sticks”
PERFORMER “Led Zeppelin”
INDEX 00 27:08:13
INDEX 01 27:09:45
TRACK 07 AUDIO
TITLE “Going To California”
PERFORMER “Led Zeppelin”
INDEX 00 31:52:28
INDEX 01 31:53:73
TRACK 08 AUDIO
TITLE “When The Levee Breaks”
PERFORMER “Led Zeppelin”
INDEX 00 35:28:73
INDEX 01 35:29:43


Leave a Reply

Your email address will not be published. Required fields are marked *

This site uses Akismet to reduce spam. Learn how your comment data is processed.