Led Zeppelin – Led Zeppelin IV (Reissue)




Artist: Led Zeppelin
Year: 1971/1989
Genre: Rock
Notes: Discogs
Add. Notes: Reissue
Cover incl.: Yes
Encoder: FLAC
Bitrate: ~800 kBit/s (44.1 kHz/16 Bit/s)
Log & Cue incl.: Yes
Size: 399 MB
Password: “slam” (without ” “)


All Downloads/Hosters are compatible

Download 1
KatFile.com
Turbobit.net
FileFactory.com
Rapidgator.net
Download 2
KatFile.com
Turbobit.net
FileFactory.com
Rapidgator.net

Tracklist:

1 Black Dog 4:55
2 Rock And Roll 3:40
3 The Battle Of Evermore 5:38
4 Stairway To Heaven 7:55
5 Misty Mountain Hop 4:39
6 Four Sticks 4:49
7 Going To California 3:36
8 When The Levee Breaks 7:08

EAC-Log, CUE-Sheed & NFO:

Click to open spoiler
Exact Audio Copy V0.99 prebeta 5 from 4. May 2009

EAC extraction logfile from 20. August 2013, 18:08

Led Zeppelin / IV

Used drive : PLEXTOR DVDR PX-L890SA Adapter: 1 ID: 0

Read mode : Secure
Utilize accurate stream : Yes
Defeat audio cache : Yes
Make use of C2 pointers : No

Read offset correction : 6
Overread into Lead-In and Lead-Out : No
Fill up missing offset samples with silence : Yes
Delete leading and trailing silent blocks : No
Null samples used in CRC calculations : Yes
Used interface : Native Win32 interface for Win NT & 2000

Used output format : User Defined Encoder
Selected bitrate : 768 kBit/s
Quality : High
Add ID3 tag : No
Command line compressor : d:\Program Files\Exact Audio Copy\FLAC\FLAC.EXE
Additional command line options : -T “DATE=%y” -T “GENRE=%m” -8 -V %s

TOC of the extracted CD

Track | Start | Length | Start sector | End sector
———————————————————
1 | 0:00.00 | 4:57.73 | 0 | 22347
2 | 4:57.73 | 3:41.47 | 22348 | 38969
3 | 8:39.45 | 5:50.70 | 38970 | 65289
4 | 14:30.40 | 8:02.18 | 65290 | 101457
5 | 22:32.58 | 4:38.40 | 101458 | 122347
6 | 27:11.23 | 4:44.62 | 122348 | 143709
7 | 31:56.10 | 3:35.63 | 143710 | 159897
8 | 35:31.73 | 7:07.40 | 159898 | 191962

Range status and errors

Selected range

Filename H:\MUSIC\COLLECTION\Led Zeppelin\1971 Led Zeppellin IV (Germany 250 008)\Led Zeppelin – IV.wav

Peak level 84.8 %
Range quality 100.0 %
Test CRC 10F6EF15
Copy CRC 10F6EF15
Copy OK

No errors occurred

AccurateRip summary

Track 1 accurately ripped (confidence 157) [942828B9]
Track 2 accurately ripped (confidence 164) [92EDC064]
Track 3 accurately ripped (confidence 156) [2EA4EDDA]
Track 4 accurately ripped (confidence 157) [1C07757E]
Track 5 accurately ripped (confidence 155) [2B93B8D1]
Track 6 accurately ripped (confidence 162) [AF26134E]
Track 7 accurately ripped (confidence 162) [F7BFCB30]
Track 8 accurately ripped (confidence 157) [A81B1A4D]

All tracks accurately ripped

End of status report

REM GENRE “Classic Rock”
REM DATE 1971
REM DISCID 6509FF08
REM COMMENT “ExactAudioCopy v0.99pb5”
PERFORMER “Led Zeppelin”
TITLE “IV”
FILE “Led Zeppelin – IV.flac” WAVE
TRACK 01 AUDIO
TITLE “Black Dog”
PERFORMER “Led Zeppelin”
INDEX 01 00:00:00
TRACK 02 AUDIO
TITLE “Rock And Roll”
PERFORMER “Led Zeppelin”
INDEX 00 04:53:68
INDEX 01 04:57:73
TRACK 03 AUDIO
TITLE “The Battle Of Evermore”
PERFORMER “Led Zeppelin”
INDEX 00 08:37:18
INDEX 01 08:39:45
TRACK 04 AUDIO
TITLE “Stairway To Heaven”
PERFORMER “Led Zeppelin”
INDEX 00 14:28:38
INDEX 01 14:30:40
TRACK 05 AUDIO
TITLE “Misty Mountain Hop”
PERFORMER “Led Zeppelin”
INDEX 00 22:29:15
INDEX 01 22:32:58
TRACK 06 AUDIO
TITLE “Four Sticks”
PERFORMER “Led Zeppelin”
INDEX 00 27:09:40
INDEX 01 27:11:23
TRACK 07 AUDIO
TITLE “Going To California”
PERFORMER “Led Zeppelin”
INDEX 00 31:52:18
INDEX 01 31:56:10
TRACK 08 AUDIO
TITLE “When The Levee Breaks”
PERFORMER “Led Zeppelin”
INDEX 00 35:30:05
INDEX 01 35:31:73


Leave a Reply

Your email address will not be published. Required fields are marked *

This site uses Akismet to reduce spam. Learn how your comment data is processed.