Led Zeppelin – Led Zeppelin IV (Japanese Edition)




Artist: Led Zeppelin
Year: 1971/1985
Genre: Rock
Notes: Discogs
Add. Notes: Japanese Edition
Cover incl.: Yes
Encoder: FLAC
Bitrate: ~800 kBit/s (44.1 kHz/16 Bit/s)
Log & Cue incl.: Yes
Size: 432 MB
Password: “slam” (without ” “)


All Downloads/Hosters are compatible

Download 1
KatFile.com
Rapidgator.net
NitroFlare.com
Turbobit.net
Download 2
KatFile.com
Rapidgator.net
NitroFlare.com
Turbobit.net

Tracklist:

1 - Black Dog - 4:56
2 - Rock And Roll - 3:41
3 - The Battle Of Evermore - 5:51
4 - Stairway To Heaven - 8:01
5 - Misty Mountain Hop - 4:39
6 - Four Sticks - 4:44
7 - Going To California - 3:35
8 - When The Levee Breaks - 7:08

EAC-Log, CUE-Sheed & NFO:

Click to open spoiler
Exact Audio Copy V0.99 prebeta 5 from 4. May 2009

EAC extraction logfile from 25. August 2013, 19:23

Led Zeppelin / ??

Used drive : PLEXTOR DVDR PX-L890SA Adapter: 1 ID: 0

Read mode : Secure
Utilize accurate stream : Yes
Defeat audio cache : Yes
Make use of C2 pointers : No

Read offset correction : 6
Overread into Lead-In and Lead-Out : No
Fill up missing offset samples with silence : Yes
Delete leading and trailing silent blocks : No
Null samples used in CRC calculations : Yes
Used interface : Native Win32 interface for Win NT & 2000

Used output format : User Defined Encoder
Selected bitrate : 768 kBit/s
Quality : High
Add ID3 tag : No
Command line compressor : d:\Program Files\Exact Audio Copy\FLAC\FLAC.EXE
Additional command line options : -T “DATE=%y” -T “GENRE=%m” -8 -V %s

TOC of the extracted CD

Track | Start | Length | Start sector | End sector
———————————————————
1 | 0:00.00 | 4:56.40 | 0 | 22239
2 | 4:56.40 | 3:41.35 | 22240 | 38849
3 | 8:38.00 | 5:51.00 | 38850 | 65174
4 | 14:29.00 | 8:01.30 | 65175 | 101279
5 | 22:30.30 | 4:39.07 | 101280 | 122211
6 | 27:09.37 | 4:44.08 | 122212 | 143519
7 | 31:53.45 | 3:35.67 | 143520 | 159711
8 | 35:29.37 | 7:08.00 | 159712 | 191811

Range status and errors

Selected range

Filename H:\MUSIC\COLLECTION\Led Zeppelin\1971 Led Zeppelin IV (Japan 32XD – 335)\Led Zeppelin – Untitled.wav

Peak level 84.8 %
Range quality 100.0 %
Test CRC F479384E
Copy CRC F479384E
Copy OK

No errors occurred

AccurateRip summary

Track 1 accurately ripped (confidence 11) [D6298C13]
Track 2 accurately ripped (confidence 10) [72EFE688]
Track 3 accurately ripped (confidence 10) [86D75E37]
Track 4 accurately ripped (confidence 10) [834863E9]
Track 5 accurately ripped (confidence 10) [8F5337DE]
Track 6 accurately ripped (confidence 10) [EF01FF60]
Track 7 accurately ripped (confidence 10) [5786B488]
Track 8 accurately ripped (confidence 10) [7004D4A3]

All tracks accurately ripped

End of status report

REM GENRE “Heavy Metal”
REM DATE 1971
REM DISCID 5909FD08
REM COMMENT “ExactAudioCopy v0.99pb5”
PERFORMER “Led Zeppelin”
TITLE “??”
FILE “Led Zeppelin – Untitled.flac” WAVE
TRACK 01 AUDIO
TITLE “Black Dog”
PERFORMER “Led Zeppelin”
INDEX 01 00:00:00
TRACK 02 AUDIO
TITLE “Rock And Roll”
PERFORMER “Led Zeppelin”
INDEX 00 04:55:00
INDEX 01 04:56:40
TRACK 03 AUDIO
TITLE “The Battle Of Evermore”
PERFORMER “Led Zeppelin”
INDEX 01 08:38:00
TRACK 04 AUDIO
TITLE “Stairway To Heaven”
PERFORMER “Led Zeppelin”
INDEX 01 14:29:00
TRACK 05 AUDIO
TITLE “Misty Mountain Hop”
PERFORMER “Led Zeppelin”
INDEX 00 22:29:00
INDEX 01 22:30:30
TRACK 06 AUDIO
TITLE “Four Sticks”
PERFORMER “Led Zeppelin”
INDEX 01 27:09:37
TRACK 07 AUDIO
TITLE “Going To California”
PERFORMER “Led Zeppelin”
INDEX 01 31:53:45
TRACK 08 AUDIO
TITLE “When The Levee Breaks”
PERFORMER “Led Zeppelin”
INDEX 01 35:29:37


Leave a Reply

Your email address will not be published. Required fields are marked *

Enter the text from the image below
 

This site uses Akismet to reduce spam. Learn how your comment data is processed.