Led Zeppelin – Led Zeppelin IV




No Cover available


Artist: Led Zeppelin
Year: 1971
Genre: Rock
Notes: Discogs
Add. Notes:
Watch Songs on: YouTube
Cover incl.: Yes
Encoder: FLAC
Bitrate: ~800 kBit/s (44.1 kHz/16 Bit/s)
Log & Cue incl.: Yes/Yes
Size: 325,5 MB
Password: “slam” (without ” “)


All Downloads/Hosters are compatible

Download 1
KatFile.com
Turbobit.net
Rapidgator.net
FileFactory.com
Download 2
KatFile.com
Turbobit.net
Rapidgator.net
FileFactory.com

Tracklist:

1 Black Dog 4:55
2 Rock And Roll 3:40
3 The Battle Of Evermore 5:38
4 Stairway To Heaven 7:55
5 Misty Mountain Hop 4:39
6 Four Sticks 4:49
7 Going To California 3:36
8 When The Levee Breaks 7:08

EAC-Log, CUE-Sheed & NFO:

Click to open spoiler
Exact Audio Copy V1.0 beta 3 from 29. August 2011

EAC extraction logfile from 17. February 2014, 23:11

Led Zeppelin / IV

Used drive : Optiarc DVD RW AD-7263S Adapter: 2 ID: 0

Read mode : Secure
Utilize accurate stream : Yes
Defeat audio cache : Yes
Make use of C2 pointers : No

Read offset correction : 48
Overread into Lead-In and Lead-Out : No
Fill up missing offset samples with silence : Yes
Delete leading and trailing silent blocks : No
Null samples used in CRC calculations : Yes
Used interface : Native Win32 interface for Win NT & 2000

Used output format : User Defined Encoder
Selected bitrate : 768 kBit/s
Quality : High
Add ID3 tag : No
Command line compressor : G:\Program Files\Exact Audio Copy\FLAC\FLAC.EXE
Additional command line options : -V -8 -T “Date=%year%” -T “Genre=%genre%” %source%

TOC of the extracted CD

Track | Start | Length | Start sector | End sector
———————————————————
1 | 0:03.42 | 4:56.43 | 267 | 22509
2 | 5:00.10 | 3:40.62 | 22510 | 39071
3 | 8:40.72 | 5:51.35 | 39072 | 65431
4 | 14:32.32 | 8:01.40 | 65432 | 101546
5 | 22:33.72 | 4:38.58 | 101547 | 122454
6 | 27:12.55 | 4:44.27 | 122455 | 143781
7 | 31:57.07 | 3:35.45 | 143782 | 159951
8 | 35:32.52 | 7:07.45 | 159952 | 192021

Range status and errors

Selected range

Filename H:\MUSIC\LZ\1971. Led Zeppelin – IV (Atlantic A2-19129, USA)\Led Zeppelin – IV.wav

Peak level 84.8 %
Extraction speed 3.0 X
Range quality 99.9 %
Test CRC EC75BAE1
Copy CRC EC75BAE1
Copy OK

No errors occurred

AccurateRip summary

Track 1 accurately ripped (confidence 22) [3BDB9E79] (AR v2)
Track 2 accurately ripped (confidence 24) [F15D2F50] (AR v2)
Track 3 accurately ripped (confidence 25) [F519F841] (AR v2)
Track 4 accurately ripped (confidence 25) [E8B5C1EC] (AR v2)
Track 5 accurately ripped (confidence 25) [D8E57F0E] (AR v2)
Track 6 accurately ripped (confidence 24) [1E42281F] (AR v2)
Track 7 accurately ripped (confidence 24) [433721E9] (AR v2)
Track 8 accurately ripped (confidence 23) [BEC4CFB4] (AR v2)

All tracks accurately ripped

End of status report

—- CUETools DB Plugin V2.1.3

[CTDB TOCID: _hnSVOd.sq7OcZwk7im6QSdkWq8-] found, Submit result: discs with pregaps not supported in this protocol version
[efadaa05] (148/149) Differs in 13323 samples @00:03:43-00:03:55
[fc5ce6cb] (001/149) No match
You can use CUETools to repair this rip.

==== Log checksum 767BCA7EDB395FA989482D2EB8F1751BB04181C931D66799338D6E2FCC53B357 ====

REM GENRE “Classic Rock”
REM DATE 1971
REM DISCID 6009FD08
REM COMMENT “ExactAudioCopy v1.0b3”
PERFORMER “Led Zeppelin”
TITLE “IV”
FILE “Led Zeppelin – IV.flac” WAVE
TRACK 01 AUDIO
TITLE “Black Dog”
PERFORMER “Led Zeppelin”
INDEX 00 00:00:00
INDEX 01 00:03:42
TRACK 02 AUDIO
TITLE “Rock And Roll”
PERFORMER “Led Zeppelin”
INDEX 00 04:56:51
INDEX 01 05:00:10
TRACK 03 AUDIO
TITLE “The Battle Of Evermore”
PERFORMER “Led Zeppelin”
INDEX 00 08:40:23
INDEX 01 08:40:72
TRACK 04 AUDIO
TITLE “Stairway To Heaven”
PERFORMER “Led Zeppelin”
INDEX 00 14:31:04
INDEX 01 14:32:32
TRACK 05 AUDIO
TITLE “Misty Mountain Hop”
PERFORMER “Led Zeppelin”
INDEX 00 22:30:36
INDEX 01 22:33:72
TRACK 06 AUDIO
TITLE “Four Sticks”
PERFORMER “Led Zeppelin”
INDEX 00 27:11:02
INDEX 01 27:12:55
TRACK 07 AUDIO
TITLE “Going To California”
PERFORMER “Led Zeppelin”
INDEX 00 31:55:16
INDEX 01 31:57:07
TRACK 08 AUDIO
TITLE “When The Levee Breaks”
PERFORMER “Led Zeppelin”
INDEX 00 35:31:69
INDEX 01 35:32:52


0

Publication author

offline 4 days

Chaos

3
Comments: 4Publics: 3565Registration: 02-02-2019
Spread the Download

Leave a Reply

Your email address will not be published. Required fields are marked *

Enter the text from the image below
 

This site uses Akismet to reduce spam. Learn how your comment data is processed.