Led Zeppelin – Led Zeppelin III




No Cover available


Artist: Led Zeppelin
Year: 1970/1990
Genre: Rock
Notes: Discogs
Add. Notes:
Watch Songs on: YouTube
Cover incl.: Yes
Encoder: FLAC
Bitrate: ~800 kBit/s (44.1 kHz/16 Bit/s)
Log & Cue incl.: Yes/Yes
Size: 320,8 MB
Password: “slam” (without ” “)


All Downloads/Hosters are compatible

Download 1
KatFile.com
Turbobit.net
Rapidgator.net
FileFactory.com
Download 2
KatFile.com
Turbobit.net
Rapidgator.net
FileFactory.com

Tracklist:

1 Immigrant Song 2:23
2 Friends 3:54
3 Celebration Day 3:28
4 Since I've Been Loving You 7:24
5 Out On The Tiles 4:05
6 Gallows Pole 4:56
7 Tangerine 2:57
8 That's The Way 5:37
9 Bron-Y-Aur Stomp 4:16
10 Hats Off To (Roy) Harper 3:42

EAC-Log, CUE-Sheed & NFO:

Click to open spoiler
Exact Audio Copy V1.0 beta 3 from 29. August 2011

EAC extraction logfile from 21. November 2013, 22:46

Led Zeppelin / Led Zeppelin III

Used drive : PLEXTOR DVDR PX-L890SA Adapter: 1 ID: 0

Read mode : Secure
Utilize accurate stream : Yes
Defeat audio cache : Yes
Make use of C2 pointers : No

Read offset correction : 6
Overread into Lead-In and Lead-Out : No
Fill up missing offset samples with silence : Yes
Delete leading and trailing silent blocks : No
Null samples used in CRC calculations : Yes
Used interface : Native Win32 interface for Win NT & 2000

Used output format : User Defined Encoder
Selected bitrate : 768 kBit/s
Quality : High
Add ID3 tag : No
Command line compressor : G:\Program Files\Exact Audio Copy\FLAC\FLAC.EXE
Additional command line options : -V -8 -T “Date=%year%” -T “Genre=%genre%” %source%

TOC of the extracted CD

Track | Start | Length | Start sector | End sector
———————————————————
1 | 0:01.00 | 2:24.50 | 75 | 10924
2 | 2:25.50 | 3:53.35 | 10925 | 28434
3 | 6:19.10 | 3:29.32 | 28435 | 44141
4 | 9:48.42 | 7:24.05 | 44142 | 77446
5 | 17:12.47 | 4:05.65 | 77447 | 95886
6 | 21:18.37 | 4:56.10 | 95887 | 118096
7 | 26:14.47 | 3:09.43 | 118097 | 132314
8 | 29:24.15 | 5:37.20 | 132315 | 157609
9 | 35:01.35 | 4:19.30 | 157610 | 177064
10 | 39:20.65 | 3:39.17 | 177065 | 193506

Range status and errors

Selected range

Filename H:\MUSIC\1970. Led Zeppelin – III (Atlantic SD 19128-2, USA)\Led Zeppelin III.wav

Peak level 100.0 %
Extraction speed 5.4 X
Range quality 100.0 %
Test CRC 2F39A5A5
Copy CRC 2F39A5A5
Copy OK

No errors occurred

AccurateRip summary

Track 1 accurately ripped (confidence 21) [DE11239A] (AR v2)
Track 2 accurately ripped (confidence 21) [E1FC53ED] (AR v2)
Track 3 accurately ripped (confidence 21) [AFC4B15C] (AR v2)
Track 4 accurately ripped (confidence 20) [F43D6CC8] (AR v2)
Track 5 accurately ripped (confidence 21) [BA515DAA] (AR v2)
Track 6 accurately ripped (confidence 21) [4D1CDF04] (AR v2)
Track 7 accurately ripped (confidence 20) [DB33AD92] (AR v2)
Track 8 accurately ripped (confidence 21) [8C0B4522] (AR v2)
Track 9 accurately ripped (confidence 19) [0266F46C] (AR v2)
Track 10 accurately ripped (confidence 20) [95AB1252] (AR v2)

All tracks accurately ripped

End of status report

—- CUETools DB Plugin V2.1.3

[CTDB TOCID: bf90ljVFEHThu_gR3C7Y3F6nrvE-] found, Submit result: discs with pregaps not supported in this protocol version
[36e7d6b9] (01/71) No match
[b7a88813] (70/71) Differs in 10420 samples @00:01:00-00:01:09
You can use CUETools to repair this rip.

==== Log checksum 9FCD5CADE6598B3F90A3BA00AA2728A37D3032A59B2BA9EB228958D0E6149EA0 ====

REM GENRE “Classic Rock”
REM DATE 1970
REM DISCID 760A130A
REM COMMENT “ExactAudioCopy v1.0b3”
PERFORMER “Led Zeppelin”
TITLE “Led Zeppelin III”
FILE “Led Zeppelin III.flac” WAVE
TRACK 01 AUDIO
TITLE “Immigrant Song”
PERFORMER “Led Zeppelin”
INDEX 00 00:00:00
INDEX 01 00:01:00
TRACK 02 AUDIO
TITLE “Friends”
PERFORMER “Led Zeppelin”
INDEX 00 02:25:49
INDEX 01 02:25:50
TRACK 03 AUDIO
TITLE “Celebration Day”
PERFORMER “Led Zeppelin”
INDEX 00 06:19:09
INDEX 01 06:19:10
TRACK 04 AUDIO
TITLE “Since I’ve Been Loving You”
PERFORMER “Led Zeppelin”
INDEX 00 09:48:41
INDEX 01 09:48:42
TRACK 05 AUDIO
TITLE “Out On The Tiles”
PERFORMER “Led Zeppelin”
INDEX 00 17:11:44
INDEX 01 17:12:47
TRACK 06 AUDIO
TITLE “Gallows Pole”
PERFORMER “Led Zeppelin”
INDEX 00 21:18:36
INDEX 01 21:18:37
TRACK 07 AUDIO
TITLE “Tangerine”
PERFORMER “Led Zeppelin”
INDEX 00 26:14:46
INDEX 01 26:14:47
TRACK 08 AUDIO
TITLE “That’s The Way”
PERFORMER “Led Zeppelin”
INDEX 00 29:24:14
INDEX 01 29:24:15
TRACK 09 AUDIO
TITLE “Bron-Y-Aur Stomp”
PERFORMER “Led Zeppelin”
INDEX 00 35:01:34
INDEX 01 35:01:35
TRACK 10 AUDIO
TITLE “Hats Off To (Roy) Harper”
PERFORMER “Led Zeppelin”
INDEX 00 39:20:60
INDEX 01 39:20:65


Leave a Reply

Your email address will not be published. Required fields are marked *

Enter the text from the image below
 

This site uses Akismet to reduce spam. Learn how your comment data is processed.