Led Zeppelin – Led Zeppelin III (Remastered)




[Total: 0    Average: 0/5]

Artist: Led Zeppelin
Year: 1970/1993
Genre: Rock
Notes: Discogs
Add. Notes: Remastered
Cover incl.: Yes
Encoder: FLAC
Bitrate: ~900 kBit/s (44.1 kHz/16 Bit/s)
Log & Cue incl.: Yes
Size: 446,31 MB
Password: “slam” (without ” “)


All Downloads/Hosters are compatible

Download 1
Share-online.biz
KatFile.com
Rapidgator.net
Mexa.sh
Download 2
Share-online.biz
KatFile.com
Rapidgator.net
Mexa.sh

Tracklist:

1 - Immigrant Song - 2:23
2 - Friends - 3:54
3 - Celebration Day - 3:28
4 - Since I've Been Loving You - 7:24
5 - Out On The Tiles - 4:05
6 - Gallows Pole - 4:56
7 - Tangerine - 2:57
8 - That's The Way - 5:37
9 - Bron-Y-Aur Stomp - 4:16
10 - Hats Off To (Roy) Harper - 3:42

EAC-Log, CUE-Sheed & NFO:

Click to open spoiler
Exact Audio Copy V1.0 beta 3 from 29. August 2011

EAC extraction logfile from 5. December 2013, 15:39

Led Zeppelin / III

Used drive : Optiarc DVD RW AD-7263S Adapter: 2 ID: 0

Read mode : Secure
Utilize accurate stream : Yes
Defeat audio cache : Yes
Make use of C2 pointers : No

Read offset correction : 48
Overread into Lead-In and Lead-Out : No
Fill up missing offset samples with silence : Yes
Delete leading and trailing silent blocks : No
Null samples used in CRC calculations : Yes
Used interface : Native Win32 interface for Win NT & 2000

Used output format : User Defined Encoder
Selected bitrate : 768 kBit/s
Quality : High
Add ID3 tag : No
Command line compressor : G:\Program Files\Exact Audio Copy\FLAC\FLAC.EXE
Additional command line options : -V -8 -T “Date=%year%” -T “Genre=%genre%” %source%

TOC of the extracted CD

Track | Start | Length | Start sector | End sector
———————————————————
1 | 0:00.32 | 2:25.05 | 32 | 10911
2 | 2:25.37 | 3:54.33 | 10912 | 28494
3 | 6:19.70 | 3:29.42 | 28495 | 44211
4 | 9:49.37 | 7:23.18 | 44212 | 77454
5 | 17:12.55 | 4:06.45 | 77455 | 95949
6 | 21:19.25 | 4:56.20 | 95950 | 118169
7 | 26:15.45 | 3:10.30 | 118170 | 132449
8 | 29:26.00 | 5:37.17 | 132450 | 157741
9 | 35:03.17 | 4:16.25 | 157742 | 176966
10 | 39:19.42 | 3:42.45 | 176967 | 193661

Range status and errors

Selected range

Filename H:\MUSIC\Complete Studio Record (USA)\1970. Led Zeppelin III\Led Zeppelin III.wav

Peak level 100.0 %
Extraction speed 3.9 X
Range quality 100.0 %
Test CRC 4CA8D725
Copy CRC 4CA8D725
Copy OK

No errors occurred

AccurateRip summary

Track 1 accurately ripped (confidence 37) [291F3A1C] (AR v2)
Track 2 accurately ripped (confidence 37) [9A4D323F] (AR v2)
Track 3 accurately ripped (confidence 33) [E0890351] (AR v2)
Track 4 accurately ripped (confidence 38) [E8907533] (AR v2)
Track 5 accurately ripped (confidence 36) [3738B545] (AR v2)
Track 6 accurately ripped (confidence 36) [3C1264E4] (AR v2)
Track 7 accurately ripped (confidence 39) [467F1C57] (AR v2)
Track 8 accurately ripped (confidence 37) [3AA4D8C0] (AR v2)
Track 9 accurately ripped (confidence 29) [33CB99CB] (AR v2)
Track 10 accurately ripped (confidence 38) [BA4D0C74] (AR v2)

All tracks accurately ripped

End of status report

—- CUETools DB Plugin V2.1.3

[CTDB TOCID: 044joza.Ru8XlnxJsncCm9zZmDk-] found, Submit result: discs with pregaps not supported in this protocol version
[b5547d51] (288/328) Differs in 12112 samples @00:00:31-00:00:41
[cd44001d] (040/328) Differs in 8997 samples @00:00:31-00:00:39,22:49:41-22:49:42,22:49:55
You can use CUETools to repair this rip.

==== Log checksum 4A371CD8667924A71F395B3653B4A87C523B87AB5E1D31DA09BCFBCA58F31642 ====

REM GENRE Rock
REM DATE 1970
REM DISCID 7B0A160A
REM COMMENT “ExactAudioCopy v1.0b3”
PERFORMER “Led Zeppelin”
TITLE “III”
FILE “Led Zeppelin III.flac” WAVE
TRACK 01 AUDIO
TITLE “Immigrant Song”
PERFORMER “Led Zeppelin”
INDEX 00 00:00:00
INDEX 01 00:00:32
TRACK 02 AUDIO
TITLE “Friends”
PERFORMER “Led Zeppelin”
INDEX 00 02:25:28
INDEX 01 02:25:37
TRACK 03 AUDIO
TITLE “Celebration Day”
PERFORMER “Led Zeppelin”
INDEX 00 06:19:66
INDEX 01 06:19:70
TRACK 04 AUDIO
TITLE “Since I’ve Been Loving You”
PERFORMER “Led Zeppelin”
INDEX 00 09:48:35
INDEX 01 09:49:37
TRACK 05 AUDIO
TITLE “Out On The Tiles”
PERFORMER “Led Zeppelin”
INDEX 00 17:12:36
INDEX 01 17:12:55
TRACK 06 AUDIO
TITLE “Gallows Pole”
PERFORMER “Led Zeppelin”
INDEX 00 21:17:61
INDEX 01 21:19:25
TRACK 07 AUDIO
TITLE “Tangerine”
PERFORMER “Led Zeppelin”
INDEX 00 26:15:35
INDEX 01 26:15:45
TRACK 08 AUDIO
TITLE “That’s The Way”
PERFORMER “Led Zeppelin”
INDEX 00 29:25:66
INDEX 01 29:26:00
TRACK 09 AUDIO
TITLE “Bron-Y-Aur Stomp”
PERFORMER “Led Zeppelin”
INDEX 00 35:02:68
INDEX 01 35:03:17
TRACK 10 AUDIO
TITLE “Hats Off To (Roy) Harper”
PERFORMER “Led Zeppelin”
INDEX 00 39:19:40
INDEX 01 39:19:42


Spread the Download

Leave a Reply

Your email address will not be published. Required fields are marked *

Enter the text from the image below
 

This site uses Akismet to reduce spam. Learn how your comment data is processed.