Led Zeppelin – Led Zeppelin III (Remastered)




No Cover available

Artist: Led Zeppelin
Year: 1970/1994
Genre: Rock
Notes: Discogs
Add. Notes: Remastered
Watch Songs on: YouTube
Cover incl.: Yes
Encoder: FLAC
Bitrate: ~900 kBit/s (44.1 kHz/16 Bit/s)
Log & Cue incl.: Yes/Yes
Size: 343 MB
Password: “slam” (without ” “)


All Downloads/Hosters are compatible

Download 1
KatFile.com
Turbobit.net
Rapidgator.net
FileFactory.com
Download 2
KatFile.com
Turbobit.net
Rapidgator.net
FileFactory.com

Tracklist:

1 Immigrant Song 2:23
2 Friends 3:54
3 Celebration Day 3:28
4 Since I've Been Loving You 7:24
5 Out On The Tiles 4:05
6 Gallows Pole 4:56
7 Tangerine 2:57
8 That's The Way 5:37
9 Bron-Y-Aur Stomp 4:16
10 Hats Off To (Roy) Harper 3:42

EAC-Log, CUE-Sheed & NFO:

Click to open spoiler
Exact Audio Copy V0.99 prebeta 5 from 4. May 2009

Отчёт EAC об извлечении, выполненном 22. июля 2009, 16:30

Led Zeppelin / III

Дисковод: MATSHITADVD-RAM UJ-850S Adapter: 1 ID: 0

Режим чтения : Достоверность
Использование точного потока : Да
Отключение кэша аудио : Да
Использование указателей C2 : Нет

Коррекция смещения при чтении : 102
Способность читать области Lead-in и Lead-out : Нет
Заполнение пропущенных сэмплов тишиной : Да
Удаление блоков с тишиной в начале и конце : Нет
При вычислениях CRC использовались нулевые сэмплы : Да
Интерфейс : Встроенный Win32-интерфейс для Win NT/2000

Выходной формат : Пользовательский кодировщик
Выбранный битрейт : 1024 kBit/s
Качество : Высокий
Добавление ID3-тэга : Нет
Утилита сжатия : C:\Program Files\Exact Audio Copy\Flac\flac.exe
Дополнительные параметры : -8 -V -T “ARTIST=%a” -T “TITLE=%t” -T “ALBUM=%g” -T “DATE=%y” -T “TRACKNUMBER=%n” -T “TOTALTRACKS=%x” -T “GENRE=%m” -T “ALBUM ARTIST=%v” -T “ALBUMARTIST=%v” -T “COMMENT=EAC V0.99 prebeta 5, Secure Mode, AccurateRip, FLAC -8” %s

TOC извлечённого CD

Трек | Старт | Длительность | Начальный сектор | Конечный сектор
———————————————————————
1 | 0:00.32 | 2:25.28 | 32 | 10934
2 | 2:25.60 | 3:54.27 | 10935 | 28511
3 | 6:20.12 | 3:29.38 | 28512 | 44224
4 | 9:49.50 | 7:23.17 | 44225 | 77466
5 | 17:12.67 | 4:06.50 | 77467 | 95966
6 | 21:19.42 | 4:56.23 | 95967 | 118189
7 | 26:15.65 | 3:10.20 | 118190 | 132459
8 | 29:26.10 | 5:37.22 | 132460 | 157756
9 | 35:03.32 | 4:16.30 | 157757 | 176986
10 | 39:19.62 | 3:42.33 | 176987 | 193669

Характеристики диапазона извлечения и сообщения об ошибках

Выбранный диапазон

Имя файла C:\Users\ALIK\Desktop\music\Led Zeppellin\LZ III\Led Zeppelin – III.wav

Пиковый уровень 100.0 %
Качество диапазона 100.0 %
CRC теста FC22B1BF
CRC копии FC22B1BF
Копирование… OK

Ошибок не произошло

AccurateRip: сводка

Трек 1 точное извлечение (доверие 105) [DDF20DC1]
Трек 2 точное извлечение (доверие 114) [E197BB72]
Трек 3 точное извлечение (доверие 108) [1A203DC0]
Трек 4 точное извлечение (доверие 111) [8737B562]
Трек 5 точное извлечение (доверие 114) [3E21A156]
Трек 6 точное извлечение (доверие 112) [8AE9104C]
Трек 7 точное извлечение (доверие 111) [6202BE34]
Трек 8 точное извлечение (доверие 112) [4875ED6D]
Трек 9 точное извлечение (доверие 110) [88E4F53F]
Трек 10 точное извлечение (доверие 106) [BDCC6EC8]

Все треки извлечены точно

Конец отчёта

REM GENRE Rock
REM DATE 1970
REM DISCID 7C0A160A
REM COMMENT “ExactAudioCopy v0.99pb5”
PERFORMER “Led Zeppelin”
TITLE “III”
FILE “Led Zeppelin – III.flac” WAVE
TRACK 01 AUDIO
TITLE “Immigrant Song”
PERFORMER “Led Zeppelin”
INDEX 00 00:00:00
INDEX 01 00:00:32
TRACK 02 AUDIO
TITLE “Friends”
PERFORMER “Led Zeppelin”
INDEX 00 02:25:57
INDEX 01 02:25:60
TRACK 03 AUDIO
TITLE “Celebration Day”
PERFORMER “Led Zeppelin”
INDEX 00 06:20:10
INDEX 01 06:20:12
TRACK 04 AUDIO
TITLE “Since I’ve Been Loving You”
PERFORMER “Led Zeppelin”
INDEX 00 09:48:57
INDEX 01 09:49:50
TRACK 05 AUDIO
TITLE “Out on the Tiles”
PERFORMER “Led Zeppelin”
INDEX 00 17:12:65
INDEX 01 17:12:67
TRACK 06 AUDIO
TITLE “Gallows Pole”
PERFORMER “Led Zeppelin”
INDEX 00 21:18:25
INDEX 01 21:19:42
TRACK 07 AUDIO
TITLE “Tangerine”
PERFORMER “Led Zeppelin”
INDEX 00 26:15:62
INDEX 01 26:15:65
TRACK 08 AUDIO
TITLE “That’s the Way”
PERFORMER “Led Zeppelin”
INDEX 00 29:26:07
INDEX 01 29:26:10
TRACK 09 AUDIO
TITLE “Bron-Y-Aur Stomp”
PERFORMER “Led Zeppelin”
INDEX 00 35:03:17
INDEX 01 35:03:32
TRACK 10 AUDIO
TITLE “Hats off to (Roy) Harper”
PERFORMER “Led Zeppelin”
INDEX 00 39:19:60
INDEX 01 39:19:62


Leave a Reply

Your email address will not be published. Required fields are marked *

This site uses Akismet to reduce spam. Learn how your comment data is processed.