Led Zeppelin – Led Zeppelin III (Reissue)




[Total: 0    Average: 0/5]

Artist: Led Zeppelin
Year: 1970/1987
Genre: Rock
Notes: Discogs
Add. Notes: Reissue
Cover incl.: Yes
Encoder: FLAC
Bitrate: ~800 kBit/s (44.1 kHz/16 Bit/s)
Log & Cue incl.: Yes
Size: 322 MB
Password: “slam” (without ” “)


All Downloads/Hosters are compatible

Download 1
KatFile.com
Turbobit.net
FileFactory.com
Rapidgator.net
Download 2
KatFile.com
Turbobit.net
FileFactory.com
Rapidgator.net

Tracklist:

1 - Immigrant Song - 2:26
2 - Friends - 3:55
3 - Celebration Day - 3:29
4 - Since I've Been Loving You - 7:25
5 - Out On The Tiles - 4:04
6 - Gallows Pole - 4:58
7 - Tangerine - 3:12
8 - That's The Way - 5:38
9 - Bron-Y-Aur Stomp - 4:20
10 - Hats Off To (Roy) Harper - 3:41

EAC-Log, CUE-Sheed & NFO:

Click to open spoiler
Exact Audio Copy V1.0 beta 3 from 29. August 2011

EAC extraction logfile from 4. January 2014, 19:21

Led Zeppelin / III

Used drive : PLEXTOR DVDR PX-L890SA Adapter: 1 ID: 0

Read mode : Secure
Utilize accurate stream : Yes
Defeat audio cache : Yes
Make use of C2 pointers : No

Read offset correction : 6
Overread into Lead-In and Lead-Out : No
Fill up missing offset samples with silence : Yes
Delete leading and trailing silent blocks : No
Null samples used in CRC calculations : Yes
Used interface : Native Win32 interface for Win NT & 2000

Used output format : User Defined Encoder
Selected bitrate : 768 kBit/s
Quality : High
Add ID3 tag : No
Command line compressor : G:\Program Files\Exact Audio Copy\FLAC\FLAC.EXE
Additional command line options : -V -8 -T “Date=%year%” -T “Genre=%genre%” %source%

TOC of the extracted CD

Track | Start | Length | Start sector | End sector
———————————————————
1 | 0:00.00 | 2:33.52 | 0 | 11526
2 | 2:33.52 | 3:45.13 | 11527 | 28414
3 | 6:18.65 | 3:29.30 | 28415 | 44119
4 | 9:48.20 | 7:24.07 | 44120 | 77426
5 | 17:12.27 | 4:05.63 | 77427 | 95864
6 | 21:18.15 | 4:56.12 | 95865 | 118076
7 | 26:14.27 | 3:09.40 | 118077 | 132291
8 | 29:23.67 | 5:37.23 | 132292 | 157589
9 | 35:01.15 | 4:19.30 | 157590 | 177044
10 | 39:20.45 | 3:39.42 | 177045 | 193511

Range status and errors

Selected range

Filename H:\MUSIC\1970. Led Zeppelin – III (Atlantic 250 002, Germany)\Led Zeppelin – III.wav

Peak level 100.0 %
Extraction speed 5.4 X
Range quality 100.0 %
Test CRC 33DD0AEB
Copy CRC 33DD0AEB
Copy OK

No errors occurred

AccurateRip summary

Track 1 accurately ripped (confidence 29) [05748D58] (AR v2)
Track 2 accurately ripped (confidence 28) [421AA0E8] (AR v2)
Track 3 accurately ripped (confidence 28) [5313DCFF] (AR v2)
Track 4 accurately ripped (confidence 29) [01E5E5EC] (AR v2)
Track 5 accurately ripped (confidence 29) [DF7BBF9C] (AR v2)
Track 6 accurately ripped (confidence 28) [705F34BA] (AR v2)
Track 7 accurately ripped (confidence 29) [F183F556] (AR v2)
Track 8 accurately ripped (confidence 29) [7DB22723] (AR v2)
Track 9 accurately ripped (confidence 29) [3BE79EFE] (AR v2)
Track 10 accurately ripped (confidence 28) [EFD75E0E] (AR v2)

All tracks accurately ripped

End of status report

—- CUETools DB Plugin V2.1.3

[CTDB TOCID: 2b9S4hJWtkq_kYVJYWCOvKC4osU-] found, Submit result: 2b9S4hJWtkq_kYVJYWCOvKC4osU- has been confirmed
[816d312c] (20/25) Accurately ripped
[5e04d1a6] (01/25) No match
[d9ec5ebb] (01/25) No match
[6b3bd026] (01/25) No match
[c18a3910] (01/25) No match
[32570188] (01/25) No match

==== Log checksum 63C78FDE9F59B04B98189091C361788AE57D7178C06F10046A34E0AA361FC2B9 ====

REM GENRE Rock
REM DATE 1970
REM DISCID 720A140A
REM COMMENT “ExactAudioCopy v1.0b3”
PERFORMER “Led Zeppelin”
TITLE “III”
FILE “Led Zeppelin – III.flac” WAVE
TRACK 01 AUDIO
TITLE “Immigrant Song”
PERFORMER “Led Zeppelin”
INDEX 01 00:00:00
TRACK 02 AUDIO
TITLE “Friends”
PERFORMER “Led Zeppelin”
INDEX 00 02:33:51
INDEX 01 02:33:52
TRACK 03 AUDIO
TITLE “Celebration Day”
PERFORMER “Led Zeppelin”
INDEX 00 06:18:64
INDEX 01 06:18:65
TRACK 04 AUDIO
TITLE “Since I’ve Been Loving You”
PERFORMER “Led Zeppelin”
INDEX 00 09:48:19
INDEX 01 09:48:20
TRACK 05 AUDIO
TITLE “Out Of The Tiles”
PERFORMER “Led Zeppelin”
INDEX 00 17:12:26
INDEX 01 17:12:27
TRACK 06 AUDIO
TITLE “Gallows Pole”
PERFORMER “Led Zeppelin”
INDEX 00 21:18:14
INDEX 01 21:18:15
TRACK 07 AUDIO
TITLE “Tangerine”
PERFORMER “Led Zeppelin”
INDEX 00 26:14:26
INDEX 01 26:14:27
TRACK 08 AUDIO
TITLE “That’s The Way”
PERFORMER “Led Zeppelin”
INDEX 00 29:23:66
INDEX 01 29:23:67
TRACK 09 AUDIO
TITLE “Bron-Y-Aur Stomp”
PERFORMER “Led Zeppelin”
INDEX 00 35:01:14
INDEX 01 35:01:15
TRACK 10 AUDIO
TITLE “Hats Off To (Roy) Harper”
PERFORMER “Led Zeppelin”
INDEX 00 39:20:44
INDEX 01 39:20:45


Spread the Download

Leave a Reply

Your email address will not be published. Required fields are marked *

Enter the text from the image below
 

This site uses Akismet to reduce spam. Learn how your comment data is processed.