Led Zeppelin – Led Zeppelin III (Japanese Edition)




Artist: Led Zeppelin
Year: 1970/1987
Genre: Rock
Notes: Discogs
Add. Notes: Japanese Edition
Cover incl.: Yes
Encoder: FLAC
Bitrate: ~800 kBit/s (44.1 kHz/16 Bit/s)
Log & Cue incl.: Yes
Size: 413 MB
Password: “slam” (without ” “)


All Downloads/Hosters are compatible

Download 1
KatFile.com
Rapidgator.net
NitroFlare.com
Turbobit.net
Download 2
KatFile.com
Rapidgator.net
NitroFlare.com
Turbobit.net

Tracklist:

1 - Immigrant Song - 2:25
2 - Friends - 3:53
3 - Celebration Day - 3:29
4 - Since I've Been Loving You - 7:24
5 - Out On The Tiles - 4:05
6 - Gallows Pole - 4:56
7 - Tangerine - 3:09
8 - That's The Way - 5:37
9 - Bron-Y-Aur Stomp - 4:19
10 - Hats Off To (Roy) Harper - 3:40

EAC-Log, CUE-Sheed & NFO:

Click to open spoiler
Exact Audio Copy V1.0 beta 3 from 29. August 2011

EAC extraction logfile from 21. October 2013, 9:45

Led Zeppelin / Led Zeppelin III (32XD-566)

Used drive : SONY BD RW BDX-S600U Adapter: 2 ID: 0

Read mode : Secure
Utilize accurate stream : Yes
Defeat audio cache : Yes
Make use of C2 pointers : No

Read offset correction : 48
Overread into Lead-In and Lead-Out : No
Fill up missing offset samples with silence : Yes
Delete leading and trailing silent blocks : No
Null samples used in CRC calculations : Yes
Used interface : Native Win32 interface for Win NT & 2000

Used output format : User Defined Encoder
Selected bitrate : 128 kBit/s
Quality : High
Add ID3 tag : No
Command line compressor : C:\Program Files (x86)\Exact Audio Copy\Flac\flac.exe
Additional command line options : -V -8 -T “Date=%year%” -T “Genre=%genre%” %source%

TOC of the extracted CD

Track | Start | Length | Start sector | End sector
———————————————————
1 | 0:00.00 | 2:25.10 | 0 | 10884
2 | 2:25.10 | 3:53.50 | 10885 | 28409
3 | 6:18.60 | 3:29.20 | 28410 | 44104
4 | 9:48.05 | 7:24.05 | 44105 | 77409
5 | 17:12.10 | 4:05.65 | 77410 | 95849
6 | 21:18.00 | 4:56.10 | 95850 | 118059
7 | 26:14.10 | 3:09.42 | 118060 | 132276
8 | 29:23.52 | 5:37.23 | 132277 | 157574
9 | 35:01.00 | 4:19.27 | 157575 | 177026
10 | 39:20.27 | 3:40.48 | 177027 | 193574

Range status and errors

Selected range

Filename D:\Led Zeppelin Discography\1970. Led Zeppelin – III\1970. Led Zeppelin – III (Atlantic Rec., Warner-Pioner Corp. 32XD-566,Japan)\Led Zeppelin – Led Zeppelin III (32XD-566).wav

Peak level 100.0 %
Extraction speed 13.7 X
Range quality 99.9 %
Test CRC 4B5586F2
Copy CRC 4B5586F2
Copy OK

No errors occurred

AccurateRip summary

Track 1 accurately ripped (confidence 8) [6B64502D] (AR v2)
Track 2 accurately ripped (confidence 8) [74B374A8] (AR v2)
Track 3 accurately ripped (confidence 8) [240F5666] (AR v2)
Track 4 accurately ripped (confidence 8) [72D74BCB] (AR v2)
Track 5 accurately ripped (confidence 8) [4ECDA9AA] (AR v2)
Track 6 accurately ripped (confidence 8) [7D9BFE5A] (AR v2)
Track 7 accurately ripped (confidence 8) [21C62FCB] (AR v2)
Track 8 accurately ripped (confidence 8) [CBF879C5] (AR v2)
Track 9 accurately ripped (confidence 7) [6B11471F] (AR v2)
Track 10 accurately ripped (confidence 8) [75E16EB9] (AR v2)

All tracks accurately ripped

End of status report

—- CUETools DB Plugin V2.1.3

[CTDB TOCID: qgrIrAUxIWfEMXUhWyox9bHcKuw-] found, Submit result: qgrIrAUxIWfEMXUhWyox9bHcKuw- has been confirmed
[924b26d3] (14/16) Accurately ripped
[f3111eba] (01/16) No match
[c0255fdc] (01/16) No match

==== Log checksum 26FA320EC60964805EFFAEF4FB1F1C31C3418E5AB7AD45257F2D7E13F2C1EB0F ====

REM GENRE “Hard Rock”
REM DATE 1970
REM DISCID 730A150A
REM COMMENT “ExactAudioCopy v1.0b3”
PERFORMER “Led Zeppelin”
TITLE “Led Zeppelin III (32XD-566)”
FILE “Led Zeppelin – Led Zeppelin III (32XD-566).flac” WAVE
TRACK 01 AUDIO
TITLE “Immigrant Song”
PERFORMER “Led Zeppelin”
INDEX 01 00:00:00
TRACK 02 AUDIO
TITLE “Friends”
PERFORMER “Led Zeppelin”
INDEX 01 02:25:10
TRACK 03 AUDIO
TITLE “Celebration Day”
PERFORMER “Led Zeppelin”
INDEX 01 06:18:60
TRACK 04 AUDIO
TITLE “Since I’ve Been Loving You”
PERFORMER “Led Zeppelin”
INDEX 01 09:48:05
TRACK 05 AUDIO
TITLE “Out On The Tiles”
PERFORMER “Led Zeppelin”
INDEX 01 17:12:10
TRACK 06 AUDIO
TITLE “Gallows Pole”
PERFORMER “Led Zeppelin”
INDEX 00 21:17:15
INDEX 01 21:18:00
TRACK 07 AUDIO
TITLE “Tangerine”
PERFORMER “Led Zeppelin”
INDEX 01 26:14:10
TRACK 08 AUDIO
TITLE “That’s The Way”
PERFORMER “Led Zeppelin”
INDEX 01 29:23:52
TRACK 09 AUDIO
TITLE “Bron-Y-Aur Stomp”
PERFORMER “Led Zeppelin”
INDEX 01 35:01:00
TRACK 10 AUDIO
TITLE “Hats Off To (Roy) Harper”
PERFORMER “Led Zeppelin”
INDEX 01 39:20:27


Leave a Reply

Your email address will not be published. Required fields are marked *

Enter the text from the image below
 

This site uses Akismet to reduce spam. Learn how your comment data is processed.