Led Zeppelin – Led Zeppelin II




No Cover available

Artist: Led Zeppelin
Year: 1969/1988
Genre: Rock
Notes: Discogs
Add. Notes:
Watch Songs on: YouTube
Cover incl.: Yes
Encoder: FLAC
Bitrate: ~800 kBit/s (44.1 kHz/16 Bit/s)
Log & Cue incl.: Yes/Yes
Size: 326,5 MB
Password: “slam” (without ” “)


All Downloads/Hosters are compatible

Download 1
KatFile.com
Turbobit.net
Rapidgator.net
FileFactory.com
Download 2
KatFile.com
Turbobit.net
Rapidgator.net
FileFactory.com

Tracklist:

1 Whole Lotta Love 5:34
2 What Is And What Should Never Be 4:47
3 The Lemon Song 6:19
4 Thank You 4:47
5 Heartbreaker 4:13
6 Living Loving Maid (She's Just A Woman) 2:39
7 Ramble On 4:35
8 Moby Dick 4:20
9 Bring It On Home 4:19

EAC-Log, CUE-Sheed & NFO:

Click to open spoiler
Exact Audio Copy V1.0 beta 3 from 29. August 2011

EAC extraction logfile from 16. March 2013, 15:38

Led Zeppelin / Led Zeppelin II

Used drive : SONY BD RW BDX-S600U Adapter: 2 ID: 0

Read mode : Secure
Utilize accurate stream : Yes
Defeat audio cache : Yes
Make use of C2 pointers : No

Read offset correction : 48
Overread into Lead-In and Lead-Out : No
Fill up missing offset samples with silence : Yes
Delete leading and trailing silent blocks : No
Null samples used in CRC calculations : Yes
Used interface : Native Win32 interface for Win NT & 2000

Used output format : User Defined Encoder
Selected bitrate : 128 kBit/s
Quality : High
Add ID3 tag : No
Command line compressor : C:\Program Files\Exact Audio Copy\Flac\flac.exe
Additional command line options : -V -8 -T “Date=%year%” -T “Genre=%genre%” %source%

TOC of the extracted CD

Track | Start | Length | Start sector | End sector
———————————————————
1 | 0:01.00 | 5:34.20 | 75 | 25144
2 | 5:35.20 | 4:48.00 | 25145 | 46744
3 | 10:23.20 | 6:18.70 | 46745 | 75164
4 | 16:42.15 | 4:47.60 | 75165 | 96749
5 | 21:30.00 | 4:13.60 | 96750 | 115784
6 | 25:43.60 | 2:39.10 | 115785 | 127719
7 | 28:22.70 | 4:35.37 | 127720 | 148381
8 | 32:58.32 | 4:20.48 | 148382 | 167929
9 | 37:19.05 | 4:19.52 | 167930 | 187406

Range status and errors

Selected range

Filename H:\ALIK\Led Zeppelin Discography\1969. Led Zeppelin – II\1969. Led Zeppelin – II (Atlantic Rec. 19127-2, USA)\Led Zeppelin – Led Zeppelin II.wav

Peak level 97.4 %
Extraction speed 13.7 X
Range quality 100.0 %
Test CRC 2F716500
Copy CRC 2F716500
Copy OK

No errors occurred

AccurateRip summary

Track 1 accurately ripped (confidence 19) [7D19A79C] (AR v1)
Track 2 accurately ripped (confidence 19) [D4BD0DEA] (AR v1)
Track 3 accurately ripped (confidence 18) [AF17DB4E] (AR v1)
Track 4 accurately ripped (confidence 18) [2AE90150] (AR v1)
Track 5 accurately ripped (confidence 19) [B0F8CC77] (AR v1)
Track 6 accurately ripped (confidence 19) [F42439D8] (AR v1)
Track 7 accurately ripped (confidence 18) [92EC7D10] (AR v1)
Track 8 accurately ripped (confidence 19) [18A3ED8B] (AR v1)
Track 9 accurately ripped (confidence 18) [DC5E2D9A] (AR v1)

All tracks accurately ripped

End of status report

—- CUETools DB Plugin V2.1.3

[CTDB TOCID: J44J2Dq2E5shqdZKoQgODiW6EGo-] found, Submit result: discs with pregaps not supported in this protocol version
[4ac4d6ca] (2/2) Differs in 10963 samples @00:01:00-00:01:09
You can use CUETools to repair this rip.

==== Log checksum 3BB01D3C1200D6E6FF7533A41EC81567522B36810D66E2DAC22381BA98B90EED ====

REM GENRE Rock
REM DATE 1969
REM DISCID 6609C109
REM COMMENT “ExactAudioCopy v1.0b3”
CATALOG 0075671912723
PERFORMER “Led Zeppelin”
TITLE “Led Zeppelin II”
FILE “Led Zeppelin – Led Zeppelin II.flac” WAVE
TRACK 01 AUDIO
TITLE “Whole Lotta Love”
PERFORMER “Led Zeppelin”
INDEX 00 00:00:00
INDEX 01 00:01:00
TRACK 02 AUDIO
TITLE “What Is And What Should Never Be”
PERFORMER “Led Zeppelin”
INDEX 01 05:35:20
TRACK 03 AUDIO
TITLE “The Lemon Song”
PERFORMER “Led Zeppelin”
INDEX 00 10:21:05
INDEX 01 10:23:20
TRACK 04 AUDIO
TITLE “Thank You”
PERFORMER “Led Zeppelin”
INDEX 01 16:42:15
TRACK 05 AUDIO
TITLE “Heartbreaker”
PERFORMER “Led Zeppelin”
INDEX 00 21:29:42
INDEX 01 21:30:00
TRACK 06 AUDIO
TITLE “Living Loving Maid (She’s Just A Woman)”
PERFORMER “Led Zeppelin”
INDEX 01 25:43:60
TRACK 07 AUDIO
TITLE “Ramble On”
PERFORMER “Led Zeppelin”
INDEX 01 28:22:70
TRACK 08 AUDIO
TITLE “Moby Dick”
PERFORMER “Led Zeppelin”
INDEX 01 32:58:32
TRACK 09 AUDIO
TITLE “Bring It On Home”
PERFORMER “Led Zeppelin”
INDEX 01 37:19:05


Leave a Reply

Your email address will not be published. Required fields are marked *

Enter the text from the image below
 

This site uses Akismet to reduce spam. Learn how your comment data is processed.