Led Zeppelin – Led Zeppelin II (Remastered)




[Total: 0    Average: 0/5]

Artist: Led Zeppelin
Year: 1969/1993
Genre: Rock
Notes: Discogs
Add. Notes: Remastered
Cover incl.: Yes
Encoder: FLAC
Bitrate: ~800 kBit/s (44.1 kHz/16 Bit/s)
Log & Cue incl.: Yes
Size: 399 MB
Password: “slam” (without ” “)


All Downloads/Hosters are compatible

Download 1
Share-online.biz
KatFile.com
Rapidgator.net
Mexa.sh
Download 2
Share-online.biz
KatFile.com
Rapidgator.net
Mexa.sh

Tracklist:

1 - Whole Lotta Love - 5:34
2 - What Is And What Should Never 
Be - 4:44
3 - The Lemon Song - 6:19
4 - Thank You - 4:47
5 - Heartbreaker - 4:14
6 - Living Loving Maid (She's Just A 
Woman) - 2:39
7 - Ramble On - 4:23
8 - Moby Dick - 4:21
9 - Bring It On Home - 4:20

EAC-Log, CUE-Sheed & NFO:

Click to open spoiler
Exact Audio Copy V1.0 beta 3 from 29. August 2011

EAC extraction logfile from 5. December 2013, 14:43

LED ZEPPELIN / Led Zeppelin II

Used drive : PLEXTOR DVDR PX-L890SA Adapter: 1 ID: 0

Read mode : Secure
Utilize accurate stream : Yes
Defeat audio cache : Yes
Make use of C2 pointers : No

Read offset correction : 6
Overread into Lead-In and Lead-Out : No
Fill up missing offset samples with silence : Yes
Delete leading and trailing silent blocks : No
Null samples used in CRC calculations : Yes
Used interface : Native Win32 interface for Win NT & 2000

Used output format : User Defined Encoder
Selected bitrate : 768 kBit/s
Quality : High
Add ID3 tag : No
Command line compressor : G:\Program Files\Exact Audio Copy\FLAC\FLAC.EXE
Additional command line options : -V -8 -T “Date=%year%” -T “Genre=%genre%” %source%

TOC of the extracted CD

Track | Start | Length | Start sector | End sector
———————————————————
1 | 0:00.32 | 5:34.05 | 32 | 25086
2 | 5:34.37 | 4:45.63 | 25087 | 46524
3 | 10:20.25 | 6:19.55 | 46525 | 75004
4 | 16:40.05 | 4:49.40 | 75005 | 96719
5 | 21:29.45 | 4:14.10 | 96720 | 115779
6 | 25:43.55 | 2:39.27 | 115780 | 127731
7 | 28:23.07 | 4:24.15 | 127732 | 147546
8 | 32:47.22 | 4:21.03 | 147547 | 167124
9 | 37:08.25 | 4:19.45 | 167125 | 186594

Range status and errors

Selected range

Filename H:\MUSIC\Complete Studio Record (USA)\1969. Led Zeppelin II\Led Zeppelin II.wav

Peak level 100.0 %
Extraction speed 5.9 X
Range quality 100.0 %
Test CRC F3DE3D9D
Copy CRC F3DE3D9D
Copy OK

No errors occurred

AccurateRip summary

Track 1 accurately ripped (confidence 70) [BDC8FCBE] (AR v2)
Track 2 accurately ripped (confidence 71) [B3CB466B] (AR v2)
Track 3 accurately ripped (confidence 70) [5E81A58C] (AR v2)
Track 4 accurately ripped (confidence 72) [2C90918F] (AR v2)
Track 5 accurately ripped (confidence 72) [1987A409] (AR v2)
Track 6 accurately ripped (confidence 71) [B9E38E81] (AR v2)
Track 7 accurately ripped (confidence 73) [D074800F] (AR v2)
Track 8 accurately ripped (confidence 71) [5369FD59] (AR v2)
Track 9 accurately ripped (confidence 70) [3FC106AB] (AR v2)

All tracks accurately ripped

End of status report

—- CUETools DB Plugin V2.1.3

[CTDB TOCID: VZn7i58Ert.p3g5tOsvcHALJqUU-] found, Submit result: discs with pregaps not supported in this protocol version
[22cdf57c] (186/186) Differs in 28303 samples @00:00:15-00:00:41
You can use CUETools to repair this rip.

==== Log checksum 868FE771E5822E5DD2DB595AE08A0E35586C5F1FB02B7E3BA67303FD18868D15 ====

REM GENRE Classic\Rock*
REM DATE 1969
REM DISCID 6409B709
REM COMMENT “ExactAudioCopy v1.0b3”
PERFORMER “LED ZEPPELIN”
TITLE “Led Zeppelin II”
FILE “Led Zeppelin II.flac” WAVE
TRACK 01 AUDIO
TITLE “Whole Lotta Love”
PERFORMER “LED ZEPPELIN”
INDEX 00 00:00:00
INDEX 01 00:00:32
TRACK 02 AUDIO
TITLE “What Is And What Should Never Be”
PERFORMER “LED ZEPPELIN”
INDEX 00 05:34:16
INDEX 01 05:34:37
TRACK 03 AUDIO
TITLE “The Lemon Song”
PERFORMER “LED ZEPPELIN”
INDEX 00 10:18:56
INDEX 01 10:20:25
TRACK 04 AUDIO
TITLE “Thank You”
PERFORMER “LED ZEPPELIN”
INDEX 00 16:40:04
INDEX 01 16:40:05
TRACK 05 AUDIO
TITLE “Heartbreaker”
PERFORMER “LED ZEPPELIN”
INDEX 00 21:29:39
INDEX 01 21:29:45
TRACK 06 AUDIO
TITLE “Living Loving Maid (She’s Just A Woman)”
PERFORMER “LED ZEPPELIN”
INDEX 00 25:43:54
INDEX 01 25:43:55
TRACK 07 AUDIO
TITLE “Ramble On”
PERFORMER “LED ZEPPELIN”
INDEX 00 28:23:06
INDEX 01 28:23:07
TRACK 08 AUDIO
TITLE “Moby Dick”
PERFORMER “LED ZEPPELIN”
INDEX 01 32:47:22
TRACK 09 AUDIO
TITLE “Bring It On Home”
PERFORMER “LED ZEPPELIN”
INDEX 00 37:08:24
INDEX 01 37:08:25


Spread the Download

Leave a Reply

Your email address will not be published. Required fields are marked *

Enter the text from the image below
 

This site uses Akismet to reduce spam. Learn how your comment data is processed.