Led Zeppelin – Led Zeppelin II (Remastered Deluxe Edition)




No Cover available

Artist: Led Zeppelin
Year: 1969/2014
Genre: Rock
Notes: Discogs
Add. Notes: Remastered Deluxe Edition
Watch Songs on: YouTube
Cover incl.: Yes
Encoder: FLAC
Bitrate: ~800 kBit/s (44.1 kHz/16 Bit/s)
Log & Cue incl.: Yes/Yes
Size: 882,5 MB
Password: “slam” (without ” “)


All Downloads/Hosters are compatible

Download 1
KatFile.com
Turbobit.net
Rapidgator.net
FileFactory.com
Download 2
KatFile.com
Turbobit.net
Rapidgator.net
FileFactory.com

Tracklist:

Original Album
1-1 Whole Lotta Love 5:35
1-2 What Is And What Should Never Be 4:46
1-3 The Lemon Song 6:20
1-4 Thank You 4:49
1-5 Heartbreaker 4:14
1-6 Living Loving Maid (She's Just A Woman) 2:39
1-7 Ramble On 4:34
1-8 Moby Dick 4:21
1-9 Bring It On Home 4:22

Companion Audio - Unreleased Studio Outtakes
2-1 Whole Lotta Love (Rough Mix With Vocal) 5:40
2-2 What Is And What Should Never Be (Rough Mix With 
Vocal) 4:34
2-3 Thank You (Backing Track) 4:21
2-4 Heartbreaker (Rough Mix With Vocal) 4:25
2-5 Living Loving Maid (She's Just A Woman) (Backing 
Track) 3:11
2-6 Ramble On (Rough Mix With Vocal) 4:45
2-7 Moby Dick (Backing Track) 1:38
2-8 La La (Intro / Outro Rough Mix) 4:10

EAC-Log, CUE-Sheed & NFO:

Click to open spoiler
Exact Audio Copy V1.0 beta 3 from 29. August 2011

EAC extraction logfile from 21. June 2014, 20:52

Led Zeppelin / Led Zeppelin II

Used drive : PLEXTOR DVDR PX-L890SA Adapter: 1 ID: 0

Read mode : Secure
Utilize accurate stream : Yes
Defeat audio cache : Yes
Make use of C2 pointers : No

Read offset correction : 6
Overread into Lead-In and Lead-Out : No
Fill up missing offset samples with silence : Yes
Delete leading and trailing silent blocks : No
Null samples used in CRC calculations : Yes
Used interface : Native Win32 interface for Win NT & 2000

Used output format : User Defined Encoder
Selected bitrate : 768 kBit/s
Quality : High
Add ID3 tag : No
Command line compressor : G:\Program Files\Exact Audio Copy\FLAC\FLAC.EXE
Additional command line options : -V -8 -T “Date=%year%” -T “Genre=%genre%” %source%

TOC of the extracted CD

Track | Start | Length | Start sector | End sector
———————————————————
1 | 0:00.00 | 5:35.30 | 0 | 25154
2 | 5:35.30 | 4:46.17 | 25155 | 46621
3 | 10:21.47 | 6:19.41 | 46622 | 75087
4 | 16:41.13 | 4:49.24 | 75088 | 96786
5 | 21:30.37 | 4:14.18 | 96787 | 115854
6 | 25:44.55 | 2:39.09 | 115855 | 127788
7 | 28:23.64 | 4:34.02 | 127789 | 148340
8 | 32:57.66 | 4:21.05 | 148341 | 167920
9 | 37:18.71 | 4:21.56 | 167921 | 187551

Range status and errors

Selected range

Filename H:\MUSIC\1969. Led Zeppelin – II (Atlantic 8122796453, EU)\Led Zeppelin II – CD1.wav

Peak level 100.0 %
Extraction speed 5.3 X
Range quality 100.0 %
Test CRC 8F23E1C5
Copy CRC 8F23E1C5
Copy OK

No errors occurred

AccurateRip summary

Track 1 not present in database
Track 2 not present in database
Track 3 not present in database
Track 4 not present in database
Track 5 not present in database
Track 6 not present in database
Track 7 not present in database
Track 8 not present in database
Track 9 not present in database

None of the tracks are present in the AccurateRip database

End of status report

==== Log checksum 57AB325D750494B33CC6A7250B94E295E8CF5D6FAFA40EA9F8A1C3C4B301CF81 ====

Exact Audio Copy V1.0 beta 3 from 29. August 2011

EAC extraction logfile from 21. June 2014, 21:24

Led Zeppelin / Led Zeppelin II -2014 Deluxe Editon – Disc 2

Used drive : PLEXTOR DVDR PX-L890SA Adapter: 1 ID: 0

Read mode : Secure
Utilize accurate stream : Yes
Defeat audio cache : Yes
Make use of C2 pointers : No

Read offset correction : 6
Overread into Lead-In and Lead-Out : No
Fill up missing offset samples with silence : Yes
Delete leading and trailing silent blocks : No
Null samples used in CRC calculations : Yes
Used interface : Native Win32 interface for Win NT & 2000

Used output format : User Defined Encoder
Selected bitrate : 768 kBit/s
Quality : High
Add ID3 tag : No
Command line compressor : G:\Program Files\Exact Audio Copy\FLAC\FLAC.EXE
Additional command line options : -V -8 -T “Date=%year%” -T “Genre=%genre%” %source%

TOC of the extracted CD

Track | Start | Length | Start sector | End sector
———————————————————
1 | 0:00.00 | 5:39.65 | 0 | 25489
2 | 5:39.65 | 4:33.67 | 25490 | 46031
3 | 10:13.57 | 4:20.50 | 46032 | 65581
4 | 14:34.32 | 4:25.24 | 65582 | 85480
5 | 18:59.56 | 3:11.10 | 85481 | 99815
6 | 22:10.66 | 4:44.62 | 99816 | 121177
7 | 26:55.53 | 1:38.28 | 121178 | 128555
8 | 28:34.06 | 4:09.69 | 128556 | 147299

Range status and errors

Selected range

Filename H:\MUSIC\1969. Led Zeppelin – II (Atlantic 8122796453, EU)\Led Zeppelin II – CD2.wav

Peak level 96.7 %
Extraction speed 2.7 X
Range quality 100.0 %
Test CRC 939ED4F2
Copy CRC 939ED4F2
Copy OK

No errors occurred

AccurateRip summary

Track 1 not present in database
Track 2 not present in database
Track 3 not present in database
Track 4 not present in database
Track 5 not present in database
Track 6 not present in database
Track 7 not present in database
Track 8 not present in database

None of the tracks are present in the AccurateRip database

End of status report

==== Log checksum 837C74F284B6FB4E0AAD7C47880DBDEE8327FF58EFD370F19AA9EAB038536330 ====

REM GENRE Rock
REM DATE 1969
REM DISCID 6B09C409
REM COMMENT “ExactAudioCopy v1.0b3”
PERFORMER “Led Zeppelin”
TITLE “Led Zeppelin II”
FILE “Led Zeppelin II – CD1.flac” WAVE
TRACK 01 AUDIO
TITLE “Whole Lotta Love”
PERFORMER “Led Zeppelin”
INDEX 01 00:00:00
TRACK 02 AUDIO
TITLE “What Is And What Should Never Be”
PERFORMER “Led Zeppelin”
INDEX 01 05:35:30
TRACK 03 AUDIO
TITLE “The Lemon Song”
PERFORMER “Led Zeppelin”
INDEX 01 10:21:47
TRACK 04 AUDIO
TITLE “Thank You”
PERFORMER “Led Zeppelin”
INDEX 01 16:41:13
TRACK 05 AUDIO
TITLE “Heartbreaker”
PERFORMER “Led Zeppelin”
INDEX 01 21:30:37
TRACK 06 AUDIO
TITLE “Living Loving Maid (She’s Just A Woman)”
PERFORMER “Led Zeppelin”
INDEX 01 25:44:55
TRACK 07 AUDIO
TITLE “Ramble On”
PERFORMER “Led Zeppelin”
INDEX 01 28:23:64
TRACK 08 AUDIO
TITLE “Moby Dick”
PERFORMER “Led Zeppelin”
INDEX 01 32:57:66
TRACK 09 AUDIO
TITLE “Bring It On Home”
PERFORMER “Led Zeppelin”
INDEX 01 37:18:71

REM GENRE Rock
REM DATE 1969
REM DISCID 5907AC08
REM COMMENT “ExactAudioCopy v1.0b3”
PERFORMER “Led Zeppelin”
TITLE “Led Zeppelin II -2014 Deluxe Editon – Disc 2”
FILE “Led Zeppelin II – CD2.flac” WAVE
TRACK 01 AUDIO
TITLE “Whole Lotta Love [Rough Mix with Vocal]”
PERFORMER “Led Zeppelin”
INDEX 01 00:00:00
TRACK 02 AUDIO
TITLE “What Is and What Should Never Be [Rough Mix with Vocal]”
PERFORMER “Led Zeppelin”
INDEX 01 05:39:65
TRACK 03 AUDIO
TITLE “Thank You [Backing Track]”
PERFORMER “Led Zeppelin”
INDEX 01 10:13:57
TRACK 04 AUDIO
TITLE “Heartbreaker [Rough Mix with Vocal]”
PERFORMER “Led Zeppelin”
INDEX 01 14:34:32
TRACK 05 AUDIO
TITLE “Living Loving Maid (She’s Just a Woman) [Backing Track]”
PERFORMER “Led Zeppelin”
INDEX 01 18:59:56
TRACK 06 AUDIO
TITLE “Ramble On [Rough Mix with Vocal]”
PERFORMER “Led Zeppelin”
INDEX 01 22:10:66
TRACK 07 AUDIO
TITLE “Moby Dick [Backing Track]”
PERFORMER “Led Zeppelin”
INDEX 01 26:55:53
TRACK 08 AUDIO
TITLE “La La [Intro/Outro Rough Mix]”
PERFORMER “Led Zeppelin”
INDEX 01 28:34:06


Leave a Reply

Your email address will not be published. Required fields are marked *

Enter the text from the image below
 

This site uses Akismet to reduce spam. Learn how your comment data is processed.