Led Zeppelin – Led Zeppelin II (Reissue)




Artist: Led Zeppelin
Year: 1969/1987
Genre: Rock
Notes: Discogs
Add. Notes: Reissue
Cover incl.: Yes
Encoder: FLAC
Bitrate: ~800 kBit/s (44.1 kHz/16 Bit/s)
Log & Cue incl.: Yes
Size: 340 MB
Password: “slam” (without ” “)


All Downloads/Hosters are compatible

Download 1
KatFile.com
Turbobit.net
FileFactory.com
Rapidgator.net
Download 2
KatFile.com
Turbobit.net
FileFactory.com
Rapidgator.net

Tracklist:

1 - Whole Lotta Love - 5:33
2 - What Is And What Should Never 
Be - 4:47
3 - The Lemon Song - 6:20
4 - Thank You - 4:46
5 - Heartbreaker - 4:15
6 - Living Loving Maid (She's Just A 
Woman) - 2:40
7 - Ramble On - 4:35
8 - Moby Dick - 4:25
9 - Bring It On Home - 4:19

EAC-Log, CUE-Sheed & NFO:

Click to open spoiler
Exact Audio Copy V0.99 prebeta 5 from 4. May 2009

Отчёт EAC об извлечении, выполненном 10. февраля 2011, 11:08

Led Zeppelin / Led Zeppelin II

Дисковод: Optiarc DVD RW AD-7240S Adapter: 1 ID: 0

Режим чтения : Достоверность
Использование точного потока : Да
Отключение кэша аудио : Да
Использование указателей C2 : Нет

Коррекция смещения при чтении : 48
Способность читать области Lead-in и Lead-out : Нет
Заполнение пропущенных сэмплов тишиной : Да
Удаление блоков с тишиной в начале и конце : Нет
При вычислениях CRC использовались нулевые сэмплы : Да
Интерфейс : Встроенный Win32-интерфейс для Win NT/2000

Выходной формат : Пользовательский кодировщик
Выбранный битрейт : 768 kBit/s
Качество : Высокий
Добавление ID3-тэга : Нет
Утилита сжатия : C:\Program Files\Exact Audio Copy\FLAC\FLAC.EXE
Дополнительные параметры : -6 -V -T “ARTIST=%a” -T “TITLE=%t” -T “ALBUM=%g” -T “DATE=%y” -T “TRACKNUMBER=%n” -T “GENRE=%m” -T “COMMENT=%e” %s -o %d

TOC извлечённого CD

Трек | Старт | Длительность | Начальный сектор | Конечный сектор
———————————————————————
1 | 0:00.00 | 5:34.72 | 0 | 25121
2 | 5:34.72 | 4:48.10 | 25122 | 46731
3 | 10:23.07 | 6:19.58 | 46732 | 75214
4 | 16:42.65 | 4:46.72 | 75215 | 96736
5 | 21:29.62 | 4:13.58 | 96737 | 115769
6 | 25:43.45 | 2:39.12 | 115770 | 127706
7 | 28:22.57 | 4:35.38 | 127707 | 148369
8 | 32:58.20 | 4:20.47 | 148370 | 167916
9 | 37:18.67 | 4:19.73 | 167917 | 187414

Характеристики диапазона извлечения и сообщения об ошибках

Выбранный диапазон

Имя файла E:\music\Led Zeppelin II\Led Zeppelin – Led Zeppelin II.wav

Пиковый уровень 97.4 %
Качество диапазона 100.0 %
CRC теста A4662D27
CRC копии A4662D27
Копирование… OK

Ошибок не произошло

AccurateRip: сводка

Трек 1 точное извлечение (доверие 164) [42ED9871]
Трек 2 точное извлечение (доверие 165) [BADE0B27]
Трек 3 точное извлечение (доверие 161) [577BF4DC]
Трек 4 точное извлечение (доверие 165) [5FAAEF84]
Трек 5 точное извлечение (доверие 165) [9051AD72]
Трек 6 точное извлечение (доверие 170) [9B87E2FD]
Трек 7 точное извлечение (доверие 165) [8EB4B050]
Трек 8 точное извлечение (доверие 169) [410FECF0]
Трек 9 точное извлечение (доверие 162) [CF465355]

Все треки извлечены точно

Конец отчёта

REM GENRE “Classic Rock”
REM DATE 1969
REM DISCID 6209C209
REM COMMENT “ExactAudioCopy v0.99pb5”
PERFORMER “Led Zeppelin”
TITLE “Led Zeppelin II”
FILE “Led Zeppelin – Led Zeppelin II.flac” WAVE
TRACK 01 AUDIO
TITLE “Whole Lotta Love”
PERFORMER “Led Zeppelin”
INDEX 01 00:00:00
TRACK 02 AUDIO
TITLE “What Is And What Should Never Be”
PERFORMER “Led Zeppelin”
INDEX 00 05:32:72
INDEX 01 05:34:72
TRACK 03 AUDIO
TITLE “The Lemon Song”
PERFORMER “Led Zeppelin”
INDEX 00 10:21:07
INDEX 01 10:23:07
TRACK 04 AUDIO
TITLE “Thank You”
PERFORMER “Led Zeppelin”
INDEX 00 16:41:67
INDEX 01 16:42:65
TRACK 05 AUDIO
TITLE “Heartbreaker”
PERFORMER “Led Zeppelin”
INDEX 00 21:29:47
INDEX 01 21:29:62
TRACK 06 AUDIO
TITLE “Living Loving Maid (She’s Just A Woman)”
PERFORMER “Led Zeppelin”
INDEX 00 25:43:17
INDEX 01 25:43:45
TRACK 07 AUDIO
TITLE “Ramble On”
PERFORMER “Led Zeppelin”
INDEX 00 28:22:05
INDEX 01 28:22:57
TRACK 08 AUDIO
TITLE “Moby Dick”
PERFORMER “Led Zeppelin”
INDEX 00 32:56:12
INDEX 01 32:58:20
TRACK 09 AUDIO
TITLE “Bring It On Home”
PERFORMER “Led Zeppelin”
INDEX 01 37:18:67


Leave a Reply

Your email address will not be published. Required fields are marked *

Enter the text from the image below
 

This site uses Akismet to reduce spam. Learn how your comment data is processed.