Led Zeppelin – Led Zeppelin II (Reissue)




No Cover available

Artist: Led Zeppelin
Year: 1969/1994
Genre: Rock
Notes: Discogs
Add. Notes: Reissue
Watch Songs on: YouTube
Cover incl.: Yes
Encoder: FLAC
Bitrate: ~800 kBit/s (44.1 kHz/16 Bit/s)
Log & Cue incl.: Yes/Yes
Size: 352,21 MB
Password: “slam” (without ” “)


All Downloads/Hosters are compatible

Download 1
KatFile.com
Turbobit.net
FileFactory.com
Rapidgator.net
Download 2
KatFile.com
Turbobit.net
FileFactory.com
Rapidgator.net

Tracklist:

1 Whole Lotta Love 5:33
2 What Is And What Should Never Be 4:47
3 The Lemon Song 6:20
4 Thank You 4:46
5 Heartbreaker 4:15
6 Living Loving Maid (She's Just A Woman) 2:40
7 Ramble On 4:35
8 Moby Dick 4:25
9 Bring It On Home 4:19

EAC-Log, CUE-Sheed & NFO:

Click to open spoiler
Exact Audio Copy V1.0 beta 3 from 29. August 2011

EAC extraction logfile from 29. November 2013, 22:57

Led Zeppelin / Led Zeppelin II (7567-81526-2)

Used drive : HL-DT-STDVDRAM GE20NU11 Adapter: 0 ID: 1

Read mode : Secure
Utilize accurate stream : Yes
Defeat audio cache : Yes
Make use of C2 pointers : No

Read offset correction : 667
Overread into Lead-In and Lead-Out : No
Fill up missing offset samples with silence : Yes
Delete leading and trailing silent blocks : No
Null samples used in CRC calculations : Yes
Used interface : Native Win32 interface for Win NT & 2000

Used output format : User Defined Encoder
Selected bitrate : 896 kBit/s
Quality : High
Add ID3 tag : No
Command line compressor : C:\Program Files\EAC 3\Exact Audio Copy\Flac\flac.exe
Additional command line options : -V -8 %source%

TOC of the extracted CD

Track | Start | Length | Start sector | End sector
———————————————————
1 | 0:00.00 | 5:35.02 | 0 | 25126
2 | 5:35.02 | 4:47.73 | 25127 | 46724
3 | 10:23.00 | 6:20.45 | 46725 | 75269
4 | 16:43.45 | 4:46.10 | 75270 | 96729
5 | 21:29.55 | 4:13.60 | 96730 | 115764
6 | 25:43.40 | 2:39.10 | 115765 | 127699
7 | 28:22.50 | 4:35.37 | 127700 | 148361
8 | 32:58.12 | 4:20.35 | 148362 | 167896
9 | 37:18.47 | 4:20.20 | 167897 | 187416

Range status and errors

Selected range

Filename C:\OdW\1969. Led Zeppelin – II (Atlantic 7567-81526-2, Germany)\Led Zeppelin – Led Zeppelin II (7567-81526-2).wav

Peak level 97.4 %
Extraction speed 1.6 X
Range quality 100.0 %
Test CRC 27A65B44
Copy CRC 27A65B44
Copy OK

No errors occurred

AccurateRip summary

Track 1 accurately ripped (confidence 37) [DCAD7234] (AR v2)
Track 2 accurately ripped (confidence 38) [558E07C2] (AR v2)
Track 3 accurately ripped (confidence 37) [4BFB87C6] (AR v2)
Track 4 accurately ripped (confidence 37) [9AC4A4CD] (AR v2)
Track 5 accurately ripped (confidence 38) [920134E2] (AR v2)
Track 6 accurately ripped (confidence 38) [34F82A1C] (AR v2)
Track 7 accurately ripped (confidence 37) [CD5BB6AE] (AR v2)
Track 8 accurately ripped (confidence 37) [3A720652] (AR v2)
Track 9 accurately ripped (confidence 36) [4BE0D1BB] (AR v2)

All tracks accurately ripped

End of status report

==== Log checksum 67987E8E4B95E24070CDDB41365E79644503B812E983F377E854299ECDA914C2 ====

REM GENRE Rock
REM DATE 1969
REM DISCID 6409C209
REM COMMENT “ExactAudioCopy v1.0b3”
PERFORMER “Led Zeppelin”
TITLE “Led Zeppelin II (7567-81526-2)”
FILE “Led Zeppelin – Led Zeppelin II (7567-81526-2).flac” WAVE
TRACK 01 AUDIO
TITLE “Whole Lotta Love”
PERFORMER “Led Zeppelin”
INDEX 01 00:00:00
TRACK 02 AUDIO
TITLE “What Is And What Should Never Be”
PERFORMER “Led Zeppelin”
INDEX 00 05:34:07
INDEX 01 05:35:02
TRACK 03 AUDIO
TITLE “The Lemon Song”
PERFORMER “Led Zeppelin”
INDEX 00 10:21:10
INDEX 01 10:23:00
TRACK 04 AUDIO
TITLE “Thank You”
PERFORMER “Led Zeppelin”
INDEX 00 16:42:70
INDEX 01 16:43:45
TRACK 05 AUDIO
TITLE “Heartbreaker”
PERFORMER “Led Zeppelin”
INDEX 00 21:29:12
INDEX 01 21:29:55
TRACK 06 AUDIO
TITLE “Living Loving Maid (She’s Just A Woman)”
PERFORMER “Led Zeppelin”
INDEX 01 25:43:40
TRACK 07 AUDIO
TITLE “Ramble On”
PERFORMER “Led Zeppelin”
INDEX 01 28:22:50
TRACK 08 AUDIO
TITLE “Moby Dick”
PERFORMER “Led Zeppelin”
INDEX 01 32:58:12
TRACK 09 AUDIO
TITLE “Bring It On Home”
PERFORMER “Led Zeppelin”
INDEX 01 37:18:47


Leave a Reply

Your email address will not be published. Required fields are marked *

Enter the text from the image below
 

This site uses Akismet to reduce spam. Learn how your comment data is processed.