Led Zeppelin – Led Zeppelin II (Japanese Edition)




Artist: Led Zeppelin
Year: 1969/1987
Genre: Rock
Notes: Discogs
Add. Notes: Japanese Edition
Cover incl.: Yes
Encoder: FLAC
Bitrate: ~800 kBit/s (44.1 kHz/16 Bit/s)
Log & Cue incl.: Yes
Size: 452,36 MB
Password: “slam” (without ” “)


All Downloads/Hosters are compatible

Download 1
Turbobit.net
KatFile.com
Rapidgator.net
NitroFlare.com
Download 2
Turbobit.net
KatFile.com
Rapidgator.net
NitroFlare.com

Tracklist:

1 - Whole Lotta Love - 5:34
2 - What Is And What Should Never Be - 4:48
3 - The Lemon Song - 6:19
4 - Thank You - 4:47
5 - Heartbreaker - 4:13
6 - Living Loving Maid (She's Just A Woman) - 2:39
7 - Ramble On - 4:35
8 - Moby Dick - 4:20
9 - Bring It On Home - 4:20

EAC-Log, CUE-Sheed & NFO:

Click to open spoiler
Exact Audio Copy V0.99 prebeta 5 from 4. May 2009

EAC extraction logfile from 12. September 2013, 19:28

Led Zeppelin / Led Zeppelin II

Used drive : PLEXTOR DVDR PX-L890SA Adapter: 1 ID: 0

Read mode : Secure
Utilize accurate stream : Yes
Defeat audio cache : Yes
Make use of C2 pointers : No

Read offset correction : 6
Overread into Lead-In and Lead-Out : No
Fill up missing offset samples with silence : Yes
Delete leading and trailing silent blocks : No
Null samples used in CRC calculations : Yes
Used interface : Native Win32 interface for Win NT & 2000

Used output format : User Defined Encoder
Selected bitrate : 768 kBit/s
Quality : High
Add ID3 tag : No
Command line compressor : d:\Program Files\Exact Audio Copy\FLAC\FLAC.EXE
Additional command line options : -T “DATE=%y” -T “GENRE=%m” -8 -V %s

TOC of the extracted CD

Track | Start | Length | Start sector | End sector
———————————————————
1 | 0:00.00 | 5:34.55 | 0 | 25104
2 | 5:34.55 | 4:48.02 | 25105 | 46706
3 | 10:22.57 | 6:19.23 | 46707 | 75154
4 | 16:42.05 | 4:47.32 | 75155 | 96711
5 | 21:29.37 | 4:13.60 | 96712 | 115746
6 | 25:43.22 | 2:39.10 | 115747 | 127681
7 | 28:22.32 | 4:35.43 | 127682 | 148349
8 | 32:58.00 | 4:20.55 | 148350 | 167904
9 | 37:18.55 | 4:20.70 | 167905 | 187474

Range status and errors

Selected range

Filename H:\MUSIC\COLLECTION\Led Zeppelin\1969 Led Zeppelin II (32XD-565)\Led Zeppelin – Led Zeppelin II.wav

Peak level 97.4 %
Range quality 100.0 %
Test CRC 3532909E
Copy CRC 3532909E
Copy OK

No errors occurred

AccurateRip summary

Track 1 accurately ripped (confidence 7) [42EEE476]
Track 2 accurately ripped (confidence 8) [198F153E]
Track 3 accurately ripped (confidence 8) [8801C75A]
Track 4 accurately ripped (confidence 7) [037B9BE5]
Track 5 accurately ripped (confidence 7) [DF8664D1]
Track 6 accurately ripped (confidence 8) [108549CD]
Track 7 accurately ripped (confidence 7) [D2ACB4CD]
Track 8 accurately ripped (confidence 7) [94B6AE07]
Track 9 accurately ripped (confidence 7) [859DEEB7]

All tracks accurately ripped

End of status report

REM GENRE Rock
REM DATE 1969
REM DISCID 6109C309
REM COMMENT “ExactAudioCopy v0.99pb5”
PERFORMER “Led Zeppelin”
TITLE “Led Zeppelin II”
FILE “Led Zeppelin – Led Zeppelin II.flac” WAVE
TRACK 01 AUDIO
TITLE “Whole Lotta Love”
PERFORMER “Led Zeppelin”
INDEX 01 00:00:00
TRACK 02 AUDIO
TITLE “What Is and What Should Never Be”
PERFORMER “Led Zeppelin”
INDEX 01 05:34:55
TRACK 03 AUDIO
TITLE “The Lemon Song”
PERFORMER “Led Zeppelin”
INDEX 00 10:21:35
INDEX 01 10:22:57
TRACK 04 AUDIO
TITLE “Thank You”
PERFORMER “Led Zeppelin”
INDEX 01 16:42:05
TRACK 05 AUDIO
TITLE “Heartbreaker”
PERFORMER “Led Zeppelin”
INDEX 01 21:29:37
TRACK 06 AUDIO
TITLE “Living Loving Maid (She’s Just a Woman)”
PERFORMER “Led Zeppelin”
INDEX 01 25:43:22
TRACK 07 AUDIO
TITLE “Ramble On”
PERFORMER “Led Zeppelin”
INDEX 01 28:22:32
TRACK 08 AUDIO
TITLE “Moby Dick”
PERFORMER “Led Zeppelin”
INDEX 01 32:58:00
TRACK 09 AUDIO
TITLE “Bring It on Home”
PERFORMER “Led Zeppelin”
INDEX 01 37:18:55


Leave a Reply

Your email address will not be published. Required fields are marked *

Enter the text from the image below
 

This site uses Akismet to reduce spam. Learn how your comment data is processed.