Led Zeppelin – Led Zeppelin II




No Cover available


Artist: Led Zeppelin
Year: 1969/1988
Genre: Rock
Notes: Discogs
Add. Notes:
Watch Songs on: YouTube
Cover incl.: Yes
Encoder: FLAC
Bitrate: ~800 kBit/s (44.1 kHz/16 Bit/s)
Log & Cue incl.: Yes/Yes
Size: 358,7 MB
Password: “slam” (without ” “)


All Downloads/Hosters are compatible

Download 1
KatFile.com
Turbobit.net
Rapidgator.net
FileFactory.com
Download 2
KatFile.com
Turbobit.net
Rapidgator.net
FileFactory.com

Tracklist:

1 Whole Lotta Love 5:34
2 What Is And What Should Never Be 4:47
3 The Lemon Song 6:19
4 Thank You 4:47
5 Heartbreaker 4:13
6 Living Loving Maid (She's Just A Woman) 2:39
7 Ramble On 4:35
8 Moby Dick 4:20
9 Bring It On Home 4:19

EAC-Log, CUE-Sheed & NFO:

Click to open spoiler
Exact Audio Copy V1.0 beta 3 from 29. August 2011

EAC extraction logfile from 17. December 2013, 22:36

Led Zeppelin / Led Zeppelin II

Used drive : PLEXTOR DVDR PX-L890SA Adapter: 1 ID: 0

Read mode : Secure
Utilize accurate stream : Yes
Defeat audio cache : Yes
Make use of C2 pointers : No

Read offset correction : 6
Overread into Lead-In and Lead-Out : No
Fill up missing offset samples with silence : Yes
Delete leading and trailing silent blocks : No
Null samples used in CRC calculations : Yes
Used interface : Native Win32 interface for Win NT & 2000

Used output format : User Defined Encoder
Selected bitrate : 768 kBit/s
Quality : High
Add ID3 tag : No
Command line compressor : G:\Program Files\Exact Audio Copy\FLAC\FLAC.EXE
Additional command line options : -V -8 -T “Date=%year%” -T “Genre=%genre%” %source%

TOC of the extracted CD

Track | Start | Length | Start sector | End sector
———————————————————
1 | 0:00.32 | 5:34.28 | 32 | 25109
2 | 5:34.60 | 4:47.67 | 25110 | 46701
3 | 10:22.52 | 6:19.03 | 46702 | 75129
4 | 16:41.55 | 4:47.52 | 75130 | 96706
5 | 21:29.32 | 4:13.68 | 96707 | 115749
6 | 25:43.25 | 2:39.10 | 115750 | 127684
7 | 28:22.35 | 4:35.37 | 127685 | 148346
8 | 32:57.72 | 4:20.48 | 148347 | 167894
9 | 37:18.45 | 4:19.65 | 167895 | 187384

Range status and errors

Selected range

Filename H:\MUSIC\1969. Led Zeppelin – II (Atlantic 19127-2, USA)\Led Zeppelin – Led Zeppelin II.wav

Peak level 97.4 %
Extraction speed 5.4 X
Range quality 100.0 %
Test CRC 7DC79CDA
Copy CRC 7DC79CDA
Copy OK

No errors occurred

AccurateRip summary

Track 1 accurately ripped (confidence 23) [734F739D] (AR v2)
Track 2 accurately ripped (confidence 24) [51B630A7] (AR v2)
Track 3 accurately ripped (confidence 24) [8E6198F6] (AR v2)
Track 4 accurately ripped (confidence 25) [C923A3FE] (AR v2)
Track 5 accurately ripped (confidence 23) [B925C1FE] (AR v2)
Track 6 accurately ripped (confidence 24) [97F1FE2D] (AR v2)
Track 7 accurately ripped (confidence 24) [E6CD4DD0] (AR v2)
Track 8 accurately ripped (confidence 24) [85DCC771] (AR v2)
Track 9 accurately ripped (confidence 24) [17D414DA] (AR v2)

All tracks accurately ripped

End of status report

—- CUETools DB Plugin V2.1.3

[CTDB TOCID: FKRMPCJBMBpZ9OuvYF160Dlj1iU-] found, Submit result: discs with pregaps not supported in this protocol version
[b44d07e3] (205/206) Differs in 0 samples @
[cc8060f4] (001/206) No match
You can use CUETools to repair this rip.

==== Log checksum 8BA9E07A1D5A5142467D062DC89F67F6CBD37D23FE174A6C4F185F6F5C750D4C ====

REM GENRE “Hard Rock”
REM DATE 1969
REM DISCID 6809C209
REM COMMENT “ExactAudioCopy v1.0b3”
PERFORMER “Led Zeppelin”
TITLE “Led Zeppelin II”
FILE “Led Zeppelin – Led Zeppelin II.flac” WAVE
TRACK 01 AUDIO
TITLE “Whole Lotta Love”
PERFORMER “Led Zeppelin”
INDEX 00 00:00:00
INDEX 01 00:00:32
TRACK 02 AUDIO
TITLE “What Is And What Should Never Be”
PERFORMER “Led Zeppelin”
INDEX 00 05:34:59
INDEX 01 05:34:60
TRACK 03 AUDIO
TITLE “The Lemon Song”
PERFORMER “Led Zeppelin”
INDEX 00 10:20:66
INDEX 01 10:22:52
TRACK 04 AUDIO
TITLE “Thank You”
PERFORMER “Led Zeppelin”
INDEX 00 16:41:54
INDEX 01 16:41:55
TRACK 05 AUDIO
TITLE “Heartbreaker”
PERFORMER “Led Zeppelin”
INDEX 00 21:29:31
INDEX 01 21:29:32
TRACK 06 AUDIO
TITLE “Living Loving Maid (She’s Just A Woman)”
PERFORMER “Led Zeppelin”
INDEX 00 25:43:24
INDEX 01 25:43:25
TRACK 07 AUDIO
TITLE “Ramble On”
PERFORMER “Led Zeppelin”
INDEX 00 28:22:34
INDEX 01 28:22:35
TRACK 08 AUDIO
TITLE “Moby Dick”
PERFORMER “Led Zeppelin”
INDEX 00 32:57:71
INDEX 01 32:57:72
TRACK 09 AUDIO
TITLE “Bring It On Home”
PERFORMER “Led Zeppelin”
INDEX 00 37:18:44
INDEX 01 37:18:45


Leave a Reply

Your email address will not be published. Required fields are marked *

Enter the text from the image below
 

This site uses Akismet to reduce spam. Learn how your comment data is processed.