Led Zeppelin – Led Zeppelin I (Remastered)




[Total: 0    Average: 0/5]

Artist: Led Zeppelin
Year: 1969/1993
Genre: Rock
Notes: Discogs
Add. Notes: Remastered
Cover incl.: Yes
Encoder: FLAC
Bitrate: ~900 kBit/s (44.1 kHz/16 Bit/s)
Log & Cue incl.: Yes
Size: 389 MB
Password: “slam” (without ” “)


All Downloads/Hosters are compatible

Download 1
Share-online.biz
KatFile.com
Rapidgator.net
Mexa.sh
Download 2
Share-online.biz
KatFile.com
Rapidgator.net
Mexa.sh

Tracklist:

1 - Good Times Bad Times - 2:46
2 - Babe I'm Gonna Leave You - 6:41
3 - You Shook Me - 6:28
4 - Dazed And Confused - 6:26
5 - Your Time Is Gonna Come - 4:14
6 - Black Mountain Side - 2:05
7 - Communication Breakdown - 2:27
8 - I Can't Quit You Baby - 4:42
9 - How Many More Times - 8:28

EAC-Log, CUE-Sheed & NFO:

Click to open spoiler
Exact Audio Copy V1.0 beta 3 from 29. August 2011

EAC extraction logfile from 5. December 2013, 14:22

Led Zeppelin / I

Used drive : PLEXTOR DVDR PX-L890SA Adapter: 1 ID: 0

Read mode : Secure
Utilize accurate stream : Yes
Defeat audio cache : Yes
Make use of C2 pointers : No

Read offset correction : 6
Overread into Lead-In and Lead-Out : No
Fill up missing offset samples with silence : Yes
Delete leading and trailing silent blocks : No
Null samples used in CRC calculations : Yes
Used interface : Native Win32 interface for Win NT & 2000

Used output format : User Defined Encoder
Selected bitrate : 768 kBit/s
Quality : High
Add ID3 tag : No
Command line compressor : G:\Program Files\Exact Audio Copy\FLAC\FLAC.EXE
Additional command line options : -V -8 -T “Date=%year%” -T “Genre=%genre%” %source%

TOC of the extracted CD

Track | Start | Length | Start sector | End sector
———————————————————
1 | 0:00.32 | 2:46.05 | 32 | 12486
2 | 2:46.37 | 6:41.28 | 12487 | 42589
3 | 9:27.65 | 6:28.07 | 42590 | 71696
4 | 15:55.72 | 6:25.73 | 71697 | 100644
5 | 22:21.70 | 4:34.57 | 100645 | 121251
6 | 26:56.52 | 2:12.45 | 121252 | 131196
7 | 29:09.22 | 2:30.10 | 131197 | 142456
8 | 31:39.32 | 4:42.43 | 142457 | 163649
9 | 36:22.00 | 8:27.72 | 163650 | 201746

Range status and errors

Selected range

Filename H:\MUSIC\Complete Studio Record (USA)\1969. Led Zeppelin\Led Zeppelin.wav

Peak level 100.0 %
Extraction speed 5.9 X
Range quality 100.0 %
Test CRC 24FA87D1
Copy CRC 24FA87D1
Copy OK

No errors occurred

AccurateRip summary

Track 1 accurately ripped (confidence 37) [053CA577] (AR v2)
Track 2 accurately ripped (confidence 39) [D70F0B38] (AR v2)
Track 3 accurately ripped (confidence 37) [B054735F] (AR v2)
Track 4 accurately ripped (confidence 36) [245203CB] (AR v2)
Track 5 accurately ripped (confidence 37) [A2C4DF99] (AR v2)
Track 6 accurately ripped (confidence 37) [50CB87B2] (AR v2)
Track 7 accurately ripped (confidence 37) [06BBCA3A] (AR v2)
Track 8 accurately ripped (confidence 37) [6B7D6B9A] (AR v2)
Track 9 accurately ripped (confidence 36) [847ABE77] (AR v2)

All tracks accurately ripped

End of status report

—- CUETools DB Plugin V2.1.3

[CTDB TOCID: 5uH_xnJofT1Oqe3A7SDTogy6LVo-] found, Submit result: discs with pregaps not supported in this protocol version
[8ee93fcf] (185/185) Differs in 21462 samples @00:00:21-00:00:41
You can use CUETools to repair this rip.

==== Log checksum 376C58E7004592BD4F0DE8DE609F8875F652826FEDBAB41ECA6217CB9154395A ====

REM GENRE Rock
REM DATE 1969
REM DISCID 7D0A8109
REM COMMENT “ExactAudioCopy v1.0b3”
PERFORMER “Led Zeppelin”
TITLE “I”
FILE “Led Zeppelin.flac” WAVE
TRACK 01 AUDIO
TITLE “Good Times Bad Times”
PERFORMER “Led Zeppelin”
INDEX 00 00:00:00
INDEX 01 00:00:32
TRACK 02 AUDIO
TITLE “Babe I’m Gonna Leave You”
PERFORMER “Led Zeppelin”
INDEX 00 02:46:35
INDEX 01 02:46:37
TRACK 03 AUDIO
TITLE “You Shook Me”
PERFORMER “Led Zeppelin”
INDEX 00 09:27:37
INDEX 01 09:27:65
TRACK 04 AUDIO
TITLE “Dazed And Confused”
PERFORMER “Led Zeppelin”
INDEX 00 15:55:70
INDEX 01 15:55:72
TRACK 05 AUDIO
TITLE “Your Time Is Gonna Come”
PERFORMER “Led Zeppelin”
INDEX 00 22:21:67
INDEX 01 22:21:70
TRACK 06 AUDIO
TITLE “Black Mountain Side”
PERFORMER “Led Zeppelin”
INDEX 00 26:56:50
INDEX 01 26:56:52
TRACK 07 AUDIO
TITLE “Communication Breakdown”
PERFORMER “Led Zeppelin”
INDEX 00 29:09:20
INDEX 01 29:09:22
TRACK 08 AUDIO
TITLE “I Can’t Quit You Baby”
PERFORMER “Led Zeppelin”
INDEX 01 31:39:32
TRACK 09 AUDIO
TITLE “How Many More Times”
PERFORMER “Led Zeppelin”
INDEX 00 36:21:72
INDEX 01 36:22:00


Spread the Download

Leave a Reply

Your email address will not be published. Required fields are marked *

Enter the text from the image below
 

This site uses Akismet to reduce spam. Learn how your comment data is processed.