Led Zeppelin – Led Zeppelin I (Remastered Deluxe Edition)




No Cover available

Artist: Led Zeppelin
Year: 1969/2014
Genre: Rock
Notes: Discogs
Add. Notes: Remastered Deluxe Edition
Watch Songs on: YouTube
Cover incl.: Yes
Encoder: FLAC
Bitrate: ~800 kBit/s (44.1 kHz/16 Bit/s)
Log & Cue incl.: Yes/Yes
Size: 1110,6 MB
Password: “slam” (without ” “)


All Downloads/Hosters are compatible

Download 1
KatFile.com
Turbobit.net
Rapidgator.net
FileFactory.com
Download 2
KatFile.com
Turbobit.net
Rapidgator.net
FileFactory.com

Tracklist:

Original Album
1-1 Good Times Bad Times 2:46
1-2 Babe I'm Gonna Leave You 6:42
1-3 You Shook Me 6:28
1-4 Dazed And Confused 6:28
1-5 Your Time Is Gonna Come 4:34
1-6 Black Mountain Side 2:12
1-7 Communication Breakdown 2:30
1-8 I Can't Quit You Baby 4:42
1-9 How Many More Times 8:27

Companion Audio
2-1 Good Times Bad Times / Communication Breakdown 
3:52
2-2 I Can't Quit You Baby 6:41
2-3 Heartbreaker 3:50
2-4 Dazed And Confused 15:01
2-5 White Summer / Black Mountain Side 9:19
2-6 You Shook Me 11:56
2-7 Moby Dick 9:22
2-8 How Many More Times 11:15

EAC-Log, CUE-Sheed & NFO:

Click to open spoiler
Exact Audio Copy V1.0 beta 3 from 29. August 2011

EAC extraction logfile from 21. June 2014, 19:39

Led Zeppelin / Led Zeppelin – 2014 Deluxe Editon -Disc 2

Used drive : PLEXTOR DVDR PX-L890SA Adapter: 1 ID: 0

Read mode : Secure
Utilize accurate stream : Yes
Defeat audio cache : Yes
Make use of C2 pointers : No

Read offset correction : 6
Overread into Lead-In and Lead-Out : No
Fill up missing offset samples with silence : Yes
Delete leading and trailing silent blocks : No
Null samples used in CRC calculations : Yes
Used interface : Native Win32 interface for Win NT & 2000

Used output format : User Defined Encoder
Selected bitrate : 768 kBit/s
Quality : High
Add ID3 tag : No
Command line compressor : G:\Program Files\Exact Audio Copy\FLAC\FLAC.EXE
Additional command line options : -V -8 -T “Date=%year%” -T “Genre=%genre%” %source%

TOC of the extracted CD

Track | Start | Length | Start sector | End sector
———————————————————
1 | 0:00.00 | 3:52.70 | 0 | 17469
2 | 3:52.70 | 6:41.24 | 17470 | 47568
3 | 10:34.19 | 3:49.37 | 47569 | 64780
4 | 14:23.56 | 15:01.48 | 64781 | 132403
5 | 29:25.29 | 9:19.09 | 132404 | 174337
6 | 38:44.38 | 11:55.66 | 174338 | 228028
7 | 50:40.29 | 9:21.47 | 228029 | 270150
8 | 60:02.01 | 11:14.43 | 270151 | 320743

Range status and errors

Selected range

Filename H:\MUSIC\1969. Led Zeppelin – I (Atlantic 8122796457, EU)\Led Zeppelin – I – (2014 CD2).wav

Peak level 97.2 %
Extraction speed 3.6 X
Range quality 100.0 %
Test CRC 3E287B6E
Copy CRC 3E287B6E
Copy OK

No errors occurred

AccurateRip summary

Track 1 not present in database
Track 2 not present in database
Track 3 not present in database
Track 4 not present in database
Track 5 not present in database
Track 6 not present in database
Track 7 not present in database
Track 8 not present in database

None of the tracks are present in the AccurateRip database

End of status report

==== Log checksum F76967EF8CAC8740D40A2EA76D436FFC44C5D34E044AF8A7C6A21DACA1440B17 ====

Exact Audio Copy V1.0 beta 3 from 29. August 2011

EAC extraction logfile from 21. June 2014, 20:05

Led Zeppelin / Led Zeppelin – 2014 Deluxe Editon -Disc 1)

Used drive : PLEXTOR DVDR PX-L890SA Adapter: 1 ID: 0

Read mode : Secure
Utilize accurate stream : Yes
Defeat audio cache : Yes
Make use of C2 pointers : No

Read offset correction : 6
Overread into Lead-In and Lead-Out : No
Fill up missing offset samples with silence : Yes
Delete leading and trailing silent blocks : No
Null samples used in CRC calculations : Yes
Used interface : Native Win32 interface for Win NT & 2000

Used output format : User Defined Encoder
Selected bitrate : 768 kBit/s
Quality : High
Add ID3 tag : No
Command line compressor : G:\Program Files\Exact Audio Copy\FLAC\FLAC.EXE
Additional command line options : -V -8 -T “Date=%year%” -T “Genre=%genre%” %source%

TOC of the extracted CD

Track | Start | Length | Start sector | End sector
———————————————————
1 | 0:00.00 | 2:47.08 | 0 | 12532
2 | 2:47.08 | 6:42.57 | 12533 | 42739
3 | 9:29.65 | 6:28.35 | 42740 | 71874
4 | 15:58.25 | 6:28.50 | 71875 | 101024
5 | 22:27.00 | 4:34.52 | 101025 | 121626
6 | 27:01.52 | 2:12.44 | 121627 | 131570
7 | 29:14.21 | 2:30.15 | 131571 | 142835
8 | 31:44.36 | 4:42.54 | 142836 | 164039
9 | 36:27.15 | 8:29.57 | 164040 | 202271

Range status and errors

Selected range

Filename H:\MUSIC\1969. Led Zeppelin – I (Atlantic 8122796457, EU)\Led Zeppelin – I – (2014 CD1).wav

Peak level 96.8 %
Extraction speed 5.4 X
Range quality 100.0 %
Test CRC 28A16934
Copy CRC 28A16934
Copy OK

No errors occurred

AccurateRip summary

Track 1 not present in database
Track 2 not present in database
Track 3 not present in database
Track 4 not present in database
Track 5 not present in database
Track 6 not present in database
Track 7 not present in database
Track 8 not present in database
Track 9 not present in database

None of the tracks are present in the AccurateRip database

End of status report

==== Log checksum 201A6ACEC15706D37DEF837934ABA9143854930FB56588F7435A846B87EA8DE8 ====

REM GENRE Rock
REM DATE 2014
REM DISCID 6510B408
REM COMMENT “ExactAudioCopy v1.0b3”
PERFORMER “Led Zeppelin”
TITLE “Led Zeppelin – 2014 Deluxe Editon -Disc 2”
FILE “Led Zeppelin – I – (2014 CD2).flac” WAVE
TRACK 01 AUDIO
TITLE “Good Times Bad Times ~ Communication Breakdown”
PERFORMER “Led Zeppelin”
INDEX 01 00:00:00
TRACK 02 AUDIO
TITLE “Can’t Quit You Baby”
PERFORMER “Led Zeppelin”
INDEX 01 03:52:70
TRACK 03 AUDIO
TITLE “Heartbreaker”
PERFORMER “Led Zeppelin”
INDEX 01 10:34:19
TRACK 04 AUDIO
TITLE “Dazed and Confused”
PERFORMER “Led Zeppelin”
INDEX 01 14:23:56
TRACK 05 AUDIO
TITLE “White Summer ~ Black Mountain Side”
PERFORMER “Led Zeppelin”
INDEX 01 29:25:29
TRACK 06 AUDIO
TITLE “You Shook Me”
PERFORMER “Led Zeppelin”
INDEX 01 38:44:38
TRACK 07 AUDIO
TITLE “Moby Dick”
PERFORMER “Led Zeppelin”
INDEX 01 50:40:29
TRACK 08 AUDIO
TITLE “How Many More Times”
PERFORMER “Led Zeppelin”
INDEX 01 60:02:01

REM GENRE Rock
REM DATE 1969
REM DISCID 820A8809
REM COMMENT “ExactAudioCopy v1.0b3”
PERFORMER “Led Zeppelin”
TITLE “Led Zeppelin – 2014 Deluxe Editon -Disc 1)”
FILE “Led Zeppelin – I – (2014 CD1).flac” WAVE
TRACK 01 AUDIO
TITLE “Good Times, Bad Times”
PERFORMER “Led Zeppelin”
INDEX 01 00:00:00
TRACK 02 AUDIO
TITLE “Babe I’m Gonna Leave You”
PERFORMER “Led Zeppelin”
INDEX 00 02:47:07
INDEX 01 02:47:08
TRACK 03 AUDIO
TITLE “You Shook Me”
PERFORMER “Led Zeppelin”
INDEX 00 09:29:64
INDEX 01 09:29:65
TRACK 04 AUDIO
TITLE “Dazed and Confused”
PERFORMER “Led Zeppelin”
INDEX 00 15:58:24
INDEX 01 15:58:25
TRACK 05 AUDIO
TITLE “Your Time is Gonna Come”
PERFORMER “Led Zeppelin”
INDEX 00 22:26:74
INDEX 01 22:27:00
TRACK 06 AUDIO
TITLE “Black Mountain Side”
PERFORMER “Led Zeppelin”
INDEX 00 27:01:51
INDEX 01 27:01:52
TRACK 07 AUDIO
TITLE “Communication Breakdown”
PERFORMER “Led Zeppelin”
INDEX 00 29:14:20
INDEX 01 29:14:21
TRACK 08 AUDIO
TITLE “I Can’t Quit You Baby”
PERFORMER “Led Zeppelin”
INDEX 00 31:44:35
INDEX 01 31:44:36
TRACK 09 AUDIO
TITLE “How Many More Times”
PERFORMER “Led Zeppelin”
INDEX 00 36:27:14
INDEX 01 36:27:15


Leave a Reply

Your email address will not be published. Required fields are marked *

Enter the text from the image below
 

This site uses Akismet to reduce spam. Learn how your comment data is processed.