Led Zeppelin – Led Zeppelin I (Remastered)




No Cover available

Artist: Led Zeppelin
Year: 1969/1994
Genre: Rock
Notes: Discogs
Add. Notes: Remastered
Watch Songs on: YouTube
Cover incl.: Yes
Encoder: FLAC
Bitrate: ~900 kBit/s (44.1 kHz/16 Bit/s)
Log & Cue incl.: Yes/Yes
Size: 362,5 MB
Password: “slam” (without ” “)


All Downloads/Hosters are compatible

Download 1
KatFile.com
Turbobit.net
FileFactory.com
Rapidgator.net
Download 2
KatFile.com
Turbobit.net
FileFactory.com
Rapidgator.net

Tracklist:

1 Good Times Bad Times 2:46
2 Babe I'm Gonna Leave You 6:41
3 You Shook Me 6:28
4 Dazed And Confused 6:26
5 Your Time Is Gonna Come 4:14
6 Black Mountain Side 2:05
7 Communication Breakdown 2:27
8 I Can't Quit You Baby 4:42
9 How Many More Times 8:28

EAC-Log, CUE-Sheed & NFO:

Click to open spoiler
Exact Audio Copy V0.99 prebeta 5 from 4. May 2009

Отчёт EAC об извлечении, выполненном 22. июля 2009, 10:59

Led Zeppelin / Led Zeppelin

Дисковод: MATSHITADVD-RAM UJ-850S Adapter: 1 ID: 0

Режим чтения : Достоверность
Использование точного потока : Да
Отключение кэша аудио : Да
Использование указателей C2 : Нет

Коррекция смещения при чтении : 102
Способность читать области Lead-in и Lead-out : Нет
Заполнение пропущенных сэмплов тишиной : Да
Удаление блоков с тишиной в начале и конце : Нет
При вычислениях CRC использовались нулевые сэмплы : Да
Интерфейс : Встроенный Win32-интерфейс для Win NT/2000

Выходной формат : Пользовательский кодировщик
Выбранный битрейт : 1024 kBit/s
Качество : Высокий
Добавление ID3-тэга : Нет
Утилита сжатия : C:\Program Files\Exact Audio Copy\Flac\flac.exe
Дополнительные параметры : -8 -V -T “ARTIST=%a” -T “TITLE=%t” -T “ALBUM=%g” -T “DATE=%y” -T “TRACKNUMBER=%n” -T “TOTALTRACKS=%x” -T “GENRE=%m” -T “ALBUM ARTIST=%v” -T “ALBUMARTIST=%v” -T “COMMENT=EAC V0.99 prebeta 5, Secure Mode, AccurateRip, FLAC -8” %s

TOC извлечённого CD

Трек | Старт | Длительность | Начальный сектор | Конечный сектор
———————————————————————
1 | 0:00.32 | 2:46.08 | 32 | 12489
2 | 2:46.40 | 6:41.25 | 12490 | 42589
3 | 9:27.65 | 6:28.10 | 42590 | 71699
4 | 15:56.00 | 6:25.72 | 71700 | 100646
5 | 22:21.72 | 4:34.65 | 100647 | 121261
6 | 26:56.62 | 2:12.38 | 121262 | 131199
7 | 29:09.25 | 2:29.57 | 131200 | 142431
8 | 31:39.07 | 4:42.68 | 142432 | 163649
9 | 36:22.00 | 8:28.37 | 163650 | 201786

Характеристики диапазона извлечения и сообщения об ошибках

Выбранный диапазон

Имя файла C:\Users\ALIK\Desktop\music\Led Zeppellin\Led Zeppelin – Led Zeppelin.wav

Пиковый уровень 100.0 %
Качество диапазона 100.0 %
CRC теста DA8212D5
CRC копии DA8212D5
Копирование… OK

Ошибок не произошло

AccurateRip: сводка

Трек 1 точное извлечение (доверие 68) [EAA88BB3]
Трек 2 точное извлечение (доверие 68) [90F4C348]
Трек 3 точное извлечение (доверие 67) [E6E9D4DB]
Трек 4 точное извлечение (доверие 68) [DBBF3347]
Трек 5 точное извлечение (доверие 68) [8A88DCCA]
Трек 6 точное извлечение (доверие 66) [1DFD5E0B]
Трек 7 точное извлечение (доверие 70) [AE50A84E]
Трек 8 точное извлечение (доверие 67) [78B3F4B7]
Трек 9 точное извлечение (доверие 70) [02E73CD6]

Все треки извлечены точно

Конец отчёта

REM GENRE “Hard Rock”
REM DATE 1969
REM DISCID 7E0A8209
REM COMMENT “ExactAudioCopy v0.99pb5”
PERFORMER “Led Zeppelin”
TITLE “Led Zeppelin”
FILE “Led Zeppelin – Led Zeppelin.flac” WAVE
TRACK 01 AUDIO
TITLE “Good Times Bad Times”
PERFORMER “Led Zeppelin”
INDEX 00 00:00:00
INDEX 01 00:00:32
TRACK 02 AUDIO
TITLE “Babe I’m Gonna Leave You”
PERFORMER “Led Zeppelin”
INDEX 00 02:46:37
INDEX 01 02:46:40
TRACK 03 AUDIO
TITLE “You Shook Me”
PERFORMER “Led Zeppelin”
INDEX 00 09:27:52
INDEX 01 09:27:65
TRACK 04 AUDIO
TITLE “Dazed And Confused”
PERFORMER “Led Zeppelin”
INDEX 00 15:55:72
INDEX 01 15:56:00
TRACK 05 AUDIO
TITLE “Your Time Is Gonna Come”
PERFORMER “Led Zeppelin”
INDEX 00 22:21:70
INDEX 01 22:21:72
TRACK 06 AUDIO
TITLE “Black Mountain Side”
PERFORMER “Led Zeppelin”
INDEX 00 26:56:60
INDEX 01 26:56:62
TRACK 07 AUDIO
TITLE “Communication Breakdown”
PERFORMER “Led Zeppelin”
INDEX 00 29:09:22
INDEX 01 29:09:25
TRACK 08 AUDIO
TITLE “I Can’t Quit You Baby”
PERFORMER “Led Zeppelin”
INDEX 00 31:37:35
INDEX 01 31:39:07
TRACK 09 AUDIO
TITLE “How Many More Times”
PERFORMER “Led Zeppelin”
INDEX 00 36:21:72
INDEX 01 36:22:00


Leave a Reply

Your email address will not be published. Required fields are marked *

Enter the text from the image below
 

This site uses Akismet to reduce spam. Learn how your comment data is processed.