Led Zeppelin – Led Zeppelin I (Reissue)




Artist: Led Zeppelin
Year: 1969/1986
Genre: Rock
Notes: Discogs
Add. Notes: Reissue
Cover incl.: Yes
Encoder: FLAC
Bitrate: ~1000 kBit/s (44.1 kHz/16 Bit/s)
Log & Cue incl.: Yes
Size: 352 MB
Password: “slam” (without ” “)


All Downloads/Hosters are compatible

Download 1
KatFile.com
Turbobit.net
FileFactory.com
Rapidgator.net
Download 2
KatFile.com
Turbobit.net
FileFactory.com
Rapidgator.net

Tracklist:

1 - Good Times Bad Times - 3:43
2 - Babe I'm Gonna Leave You - 6:40
3 - You Shook Me - 6:30
4 - Dazed And Confused - 6:27
5 - Your Time Is Gonna Come - 4:41
6 - Black Mountain Side - 2:06
7 - Communication Breakdown - 2:26
8 - I Can't Quit You Baby - 4:42
9 - How Many More Times - 8:30

EAC-Log, CUE-Sheed & NFO:

Click to open spoiler
Exact Audio Copy V0.99 prebeta 5 from 4. May 2009

EAC extraction logfile from 12. September 2013, 18:54

Led Zeppelin / Led Zeppelin

Used drive : PLEXTOR DVDR PX-L890SA Adapter: 1 ID: 0

Read mode : Secure
Utilize accurate stream : Yes
Defeat audio cache : Yes
Make use of C2 pointers : No

Read offset correction : 6
Overread into Lead-In and Lead-Out : No
Fill up missing offset samples with silence : Yes
Delete leading and trailing silent blocks : No
Null samples used in CRC calculations : Yes
Used interface : Native Win32 interface for Win NT & 2000

Used output format : User Defined Encoder
Selected bitrate : 768 kBit/s
Quality : High
Add ID3 tag : No
Command line compressor : d:\Program Files\Exact Audio Copy\FLAC\FLAC.EXE
Additional command line options : -T “DATE=%y” -T “GENRE=%m” -8 -V %s

TOC of the extracted CD

Track | Start | Length | Start sector | End sector
———————————————————
1 | 0:01.00 | 2:46.02 | 75 | 12526
2 | 2:47.02 | 6:42.55 | 12527 | 42731
3 | 9:29.57 | 6:28.10 | 42732 | 71841
4 | 15:57.67 | 6:28.13 | 71842 | 100954
5 | 22:26.05 | 4:34.40 | 100955 | 121544
6 | 27:00.45 | 2:12.35 | 121545 | 131479
7 | 29:13.05 | 2:31.40 | 131480 | 142844
8 | 31:44.45 | 4:42.30 | 142845 | 164024
9 | 36:27.00 | 8:28.05 | 164025 | 202129

Range status and errors

Selected range

Filename H:\MUSIC\COLLECTION\Led Zeppelin\1969 Led Zeppelin (Germany 240 031)\Led Zeppelin – Led Zeppelin.wav

Peak level 100.0 %
Range quality 99.9 %
Test CRC 87A8B364
Copy CRC 87A8B364
Copy OK

No errors occurred

AccurateRip summary

Track 1 accurately ripped (confidence 113) [208C655B]
Track 2 accurately ripped (confidence 111) [7C3ADCDA]
Track 3 accurately ripped (confidence 107) [C700CC66]
Track 4 accurately ripped (confidence 110) [67FCFA08]
Track 5 accurately ripped (confidence 108) [0F1C530A]
Track 6 accurately ripped (confidence 111) [9262FF2A]
Track 7 accurately ripped (confidence 110) [2EBA6966]
Track 8 accurately ripped (confidence 108) [D6ED0330]
Track 9 accurately ripped (confidence 104) [92062351]

All tracks accurately ripped

End of status report

REM GENRE “Hard Rock”
REM DATE 1969
REM DISCID 880A8609
REM COMMENT “ExactAudioCopy v0.99pb5”
PERFORMER “Led Zeppelin”
TITLE “Led Zeppelin”
FILE “Led Zeppelin – Led Zeppelin.flac” WAVE
TRACK 01 AUDIO
TITLE “Good Times Bad Times”
PERFORMER “Led Zeppelin”
INDEX 00 00:00:00
INDEX 01 00:01:00
TRACK 02 AUDIO
TITLE “Babe I’m Gonna Leave You”
PERFORMER “Led Zeppelin”
INDEX 01 02:47:02
TRACK 03 AUDIO
TITLE “You Shook Me”
PERFORMER “Led Zeppelin”
INDEX 00 09:29:52
INDEX 01 09:29:57
TRACK 04 AUDIO
TITLE “Dazed and Confused”
PERFORMER “Led Zeppelin”
INDEX 01 15:57:67
TRACK 05 AUDIO
TITLE “Your Time Is Gonna Come”
PERFORMER “Led Zeppelin”
INDEX 01 22:26:05
TRACK 06 AUDIO
TITLE “Black Mountain Side”
PERFORMER “Led Zeppelin”
INDEX 01 27:00:45
TRACK 07 AUDIO
TITLE “Communication Breakdown”
PERFORMER “Led Zeppelin”
INDEX 01 29:13:05
TRACK 08 AUDIO
TITLE “I Can’t Quit You Baby”
PERFORMER “Led Zeppelin”
INDEX 00 31:42:55
INDEX 01 31:44:45
TRACK 09 AUDIO
TITLE “How Many More Times”
PERFORMER “Led Zeppelin”
INDEX 01 36:27:00


Leave a Reply

Your email address will not be published. Required fields are marked *

This site uses Akismet to reduce spam. Learn how your comment data is processed.