Led Zeppelin – In Through The Out Door




No Cover available

Artist: Led Zeppelin
Year: 1979/1993
Genre: Rock
Notes: Discogs
Add. Notes:
Watch Songs on: YouTube
Cover incl.: Yes
Encoder: FLAC
Bitrate: ~800 kBit/s (44.1 kHz/16 Bit/s)
Log & Cue incl.: Yes/Yes
Size: 362 MB
Password: “slam” (without ” “)


All Downloads/Hosters are compatible

Download 1
KatFile.com
Turbobit.net
FileFactory.com
Rapidgator.net
Download 2
KatFile.com
Turbobit.net
FileFactory.com
Rapidgator.net

Tracklist:

1 In The Evening 6:19
2 South Bound Saurez 4:11
3 Fool In The Rain 6:08
4 Hot Dog 3:15
5 Carouselambra 10:28
6 All My Love 5:51
7 I'm Gonna Crawl 5:28

EAC-Log, CUE-Sheed & NFO:

Click to open spoiler
Exact Audio Copy V1.0 beta 3 from 29. August 2011

EAC extraction logfile from 5. December 2013, 14:01

Led Zeppelin / In Through The Out Door (7567-90374-2)

Used drive : HL-DT-STDVDRAM GE20NU11 Adapter: 0 ID: 1

Read mode : Secure
Utilize accurate stream : Yes
Defeat audio cache : Yes
Make use of C2 pointers : No

Read offset correction : 667
Overread into Lead-In and Lead-Out : No
Fill up missing offset samples with silence : Yes
Delete leading and trailing silent blocks : No
Null samples used in CRC calculations : Yes
Used interface : Native Win32 interface for Win NT & 2000

Used output format : User Defined Encoder
Selected bitrate : 896 kBit/s
Quality : High
Add ID3 tag : No
Command line compressor : C:\Program Files\EAC 3\Exact Audio Copy\Flac\flac.exe
Additional command line options : -V -8 %source%

TOC of the extracted CD

Track | Start | Length | Start sector | End sector
———————————————————
1 | 0:00.00 | 6:52.25 | 0 | 30924
2 | 6:52.25 | 4:13.55 | 30925 | 49954
3 | 11:06.05 | 6:10.52 | 49955 | 77756
4 | 17:16.57 | 3:17.70 | 77757 | 92601
5 | 20:34.52 | 10:34.18 | 92602 | 140169
6 | 31:08.70 | 5:55.52 | 140170 | 166846
7 | 37:04.47 | 5:29.55 | 166847 | 191576

Range status and errors

Selected range

Filename C:\OdW\1979. In Through The Out Door (Atlantic 7567-90374-2, Germany)\Led Zeppelin – In Through The Out Door (7567-90374-2).wav

Peak level 96.0 %
Extraction speed 1.6 X
Range quality 100.0 %
Test CRC 02E84F7A
Copy CRC 02E84F7A
Copy OK

No errors occurred

AccurateRip summary

Track 1 accurately ripped (confidence 18) [AB20A2CE] (AR v2)
Track 2 accurately ripped (confidence 17) [29049545] (AR v2)
Track 3 accurately ripped (confidence 18) [C84E9060] (AR v2)
Track 4 accurately ripped (confidence 17) [1F7B9775] (AR v2)
Track 5 accurately ripped (confidence 17) [5915CBE7] (AR v2)
Track 6 accurately ripped (confidence 17) [6FF027D8] (AR v2)
Track 7 accurately ripped (confidence 17) [F77DAED7] (AR v2)

All tracks accurately ripped

End of status report

==== Log checksum F4D064A2156A9461E50597C8CE1242DD37BB6674BFF22A1143B298D2E5418E49 ====

REM GENRE Rock
REM DATE 1979
REM DISCID 5309FA07
REM COMMENT “ExactAudioCopy v1.0b3”
PERFORMER “Led Zeppelin”
TITLE “In Through The Out Door (7567-90374-2)”
FILE “Led Zeppelin – In Through The Out Door (7567-90374-2).flac” WAVE
TRACK 01 AUDIO
TITLE “In The Evening”
PERFORMER “Led Zeppelin”
INDEX 01 00:00:00
TRACK 02 AUDIO
TITLE “South Bound Saurez”
PERFORMER “Led Zeppelin”
INDEX 00 06:50:52
INDEX 01 06:52:25
TRACK 03 AUDIO
TITLE “Fool In The Rain”
PERFORMER “Led Zeppelin”
INDEX 00 11:05:07
INDEX 01 11:06:05
TRACK 04 AUDIO
TITLE “Hot Dog”
PERFORMER “Led Zeppelin”
INDEX 01 17:16:57
TRACK 05 AUDIO
TITLE “Carouselambra”
PERFORMER “Led Zeppelin”
INDEX 00 20:33:07
INDEX 01 20:34:52
TRACK 06 AUDIO
TITLE “All My Love”
PERFORMER “Led Zeppelin”
INDEX 00 31:06:27
INDEX 01 31:08:70
TRACK 07 AUDIO
TITLE “I’m Gonna Crawl”
PERFORMER “Led Zeppelin”
INDEX 00 37:01:25
INDEX 01 37:04:47


Leave a Reply

Your email address will not be published. Required fields are marked *

Enter the text from the image below
 

This site uses Akismet to reduce spam. Learn how your comment data is processed.