Led Zeppelin – In Through The Out Door (Remastered)




[Total: 0    Average: 0/5]

Artist: Led Zeppelin
Year: 1979/1993
Genre: Rock
Notes: Discogs
Add. Notes: Remastered
Cover incl.: Yes
Encoder: FLAC
Bitrate: ~900 kBit/s (44.1 kHz/16 Bit/s)
Log & Cue incl.: Yes
Size: 670 MB
Password: “slam” (without ” “)


All Downloads/Hosters are compatible

Download 1
Share-online.biz
KatFile.com
Rapidgator.net
Mexa.sh
Download 2
Share-online.biz
KatFile.com
Rapidgator.net
Mexa.sh

Tracklist:

1 - In The Evening - 6:49
2 - South Bound Saurez - 4:12
3 - Fool In The Rain - 6:12
4 - Hot Dog - 3:17
5 - Carouselambra - 10:32
6 - All My Love - 5:53
7 - I'm Gonna Crawl - 5:30

EAC-Log, CUE-Sheed & NFO:

Click to open spoiler
Exact Audio Copy V1.0 beta 3 from 29. August 2011

EAC extraction logfile from 6. December 2013, 20:36

Led Zeppelin / In Through The Out Door

Used drive : Optiarc DVD RW AD-7263S Adapter: 2 ID: 0

Read mode : Secure
Utilize accurate stream : Yes
Defeat audio cache : Yes
Make use of C2 pointers : No

Read offset correction : 48
Overread into Lead-In and Lead-Out : No
Fill up missing offset samples with silence : Yes
Delete leading and trailing silent blocks : No
Null samples used in CRC calculations : Yes
Used interface : Native Win32 interface for Win NT & 2000

Used output format : User Defined Encoder
Selected bitrate : 768 kBit/s
Quality : High
Add ID3 tag : No
Command line compressor : G:\Program Files\Exact Audio Copy\FLAC\FLAC.EXE
Additional command line options : -V -8 -T “Date=%year%” -T “Genre=%genre%” %source%

TOC of the extracted CD

Track | Start | Length | Start sector | End sector
———————————————————
1 | 0:00.32 | 6:50.58 | 32 | 30839
2 | 6:51.15 | 4:14.17 | 30840 | 49906
3 | 11:05.32 | 6:13.00 | 49907 | 77881
4 | 17:18.32 | 3:17.13 | 77882 | 92669
5 | 20:35.45 | 10:34.25 | 92670 | 140244
6 | 31:09.70 | 5:56.17 | 140245 | 166961
7 | 37:06.12 | 5:30.15 | 166962 | 191726

Range status and errors

Selected range

Filename H:\MUSIC\Complete Studio Record (USA)\1979. In Through The Out Door\In Through The Out Door.wav

Peak level 100.0 %
Extraction speed 3.9 X
Range quality 100.0 %
Test CRC A4FA46DB
Copy CRC A4FA46DB
Copy OK

No errors occurred

AccurateRip summary

Track 1 accurately ripped (confidence 74) [A5FC73FB] (AR v2)
Track 2 accurately ripped (confidence 62) [127388B2] (AR v2)
Track 3 accurately ripped (confidence 75) [CFC8D219] (AR v2)
Track 4 accurately ripped (confidence 74) [34E5EC18] (AR v2)
Track 5 accurately ripped (confidence 60) [9B505151] (AR v2)
Track 6 accurately ripped (confidence 76) [23A2953C] (AR v2)
Track 7 accurately ripped (confidence 73) [6959A8C8] (AR v2)

All tracks accurately ripped

End of status report

—- CUETools DB Plugin V2.1.3

[CTDB TOCID: qJB1TntGySKzNK664ZdotGSXqDI-] found, Submit result: discs with pregaps not supported in this protocol version
[7e50451a] (147/148) Differs in 0 samples @
[81338ea0] (001/148) No match
You can use CUETools to repair this rip.

==== Log checksum A5B92B94052FA5E9806396FE140048BC354846AE2A85FA6879B641EA6405188C ====

REM GENRE Rock
REM DATE 1979
REM DISCID 4E09FC07
REM COMMENT “ExactAudioCopy v1.0b3”
PERFORMER “Led Zeppelin”
TITLE “In Through The Out Door”
FILE “In Through The Out Door.flac” WAVE
TRACK 01 AUDIO
TITLE “In The Evening”
PERFORMER “Led Zeppelin”
INDEX 00 00:00:00
INDEX 01 00:00:32
TRACK 02 AUDIO
TITLE “South Bound Saurez”
PERFORMER “Led Zeppelin”
INDEX 00 06:49:65
INDEX 01 06:51:15
TRACK 03 AUDIO
TITLE “Fool In The Rain”
PERFORMER “Led Zeppelin”
INDEX 00 11:04:09
INDEX 01 11:05:32
TRACK 04 AUDIO
TITLE “Hot Dog”
PERFORMER “Led Zeppelin”
INDEX 01 17:18:32
TRACK 05 AUDIO
TITLE “Carouselambra”
PERFORMER “Led Zeppelin”
INDEX 00 20:34:60
INDEX 01 20:35:45
TRACK 06 AUDIO
TITLE “All My Love”
PERFORMER “Led Zeppelin”
INDEX 00 31:07:56
INDEX 01 31:09:70
TRACK 07 AUDIO
TITLE “I’m Gonna Crawl”
PERFORMER “Led Zeppelin”
INDEX 00 37:01:50
INDEX 01 37:06:12


Spread the Download

Leave a Reply

Your email address will not be published. Required fields are marked *

Enter the text from the image below
 

This site uses Akismet to reduce spam. Learn how your comment data is processed.