Led Zeppelin – In Through The Out Door (Remastered)




No Cover available

Artist: Led Zeppelin
Year: 1979/1994
Genre: Rock
Notes: Discogs
Add. Notes: Remastered
Watch Songs on: YouTube
Cover incl.: Yes
Encoder: FLAC
Bitrate: ~900 kBit/s (44.1 kHz/16 Bit/s)
Log & Cue incl.: Yes/Yes
Size: 404,1 MB
Password: “slam” (without ” “)


All Downloads/Hosters are compatible

Download 1
KatFile.com
Turbobit.net
Rapidgator.net
FileFactory.com
Download 2
KatFile.com
Turbobit.net
Rapidgator.net
FileFactory.com

Tracklist:

1 In The Evening 6:49
2 South Bound Saurez 4:12
3 Fool In The Rain 6:12
4 Hot Dog 3:17
5 Carouselambra 10:32
6 All My Love 5:53
7 I'm Gonna Crawl 5:30

EAC-Log, CUE-Sheed & NFO:

Click to open spoiler
Exact Audio Copy V1.0 beta 3 from 29. August 2011

EAC extraction logfile from 12. June 2013, 17:48

Led Zeppelin / In Through The Out Door

Used drive : SONY BD RW BDX-S600U Adapter: 2 ID: 0

Read mode : Secure
Utilize accurate stream : Yes
Defeat audio cache : Yes
Make use of C2 pointers : No

Read offset correction : 48
Overread into Lead-In and Lead-Out : No
Fill up missing offset samples with silence : Yes
Delete leading and trailing silent blocks : No
Null samples used in CRC calculations : Yes
Used interface : Native Win32 interface for Win NT & 2000

Used output format : User Defined Encoder
Selected bitrate : 128 kBit/s
Quality : High
Add ID3 tag : No
Command line compressor : C:\Program Files\Exact Audio Copy\Flac\flac.exe
Additional command line options : -V -8 -T “Date=%year%” -T “Genre=%genre%” %source%

TOC of the extracted CD

Track | Start | Length | Start sector | End sector
———————————————————
1 | 0:00.00 | 6:50.60 | 0 | 30809
2 | 6:50.60 | 4:14.20 | 30810 | 49879
3 | 11:05.05 | 6:12.72 | 49880 | 77851
4 | 17:18.02 | 3:17.05 | 77852 | 92631
5 | 20:35.07 | 10:34.28 | 92632 | 140209
6 | 31:09.35 | 5:56.07 | 140210 | 166916
7 | 37:05.42 | 5:30.30 | 166917 | 191696

Range status and errors

Selected range

Filename H:\ALIK\Led Zeppelin Discography\1979. Led Zeppelin – In Through The Out Door\1979. Led Zeppelin – In Through The Out Door (Swan Song 7567-92443-2,Germany)\Led Zeppelin – In Through The Out Door.wav

Peak level 100.0 %
Extraction speed 13.8 X
Range quality 100.0 %
Test CRC 2A6A6435
Copy CRC 2A6A6435
Copy OK

No errors occurred

AccurateRip summary

Track 1 accurately ripped (confidence 12) [3CA1185C] (AR v2)
Track 2 accurately ripped (confidence 10) [988F8B6E] (AR v2)
Track 3 accurately ripped (confidence 12) [9B4FFACB] (AR v2)
Track 4 accurately ripped (confidence 12) [C9141FA6] (AR v2)
Track 5 accurately ripped (confidence 12) [79CF1E35] (AR v2)
Track 6 accurately ripped (confidence 11) [7B1DDF01] (AR v2)
Track 7 accurately ripped (confidence 12) [F5426253] (AR v2)

All tracks accurately ripped

End of status report

—- CUETools DB Plugin V2.1.3

[CTDB TOCID: JiT.8mGqgkVoC_8GXcR_FhPGp0E-] found, Submit result: JiT.8mGqgkVoC_8GXcR_FhPGp0E- has been confirmed
[2ccf2188] (236/248) Accurately ripped
[a839ac28] (001/248) No match
[85b347b7] (001/248) No match
[847c020b] (001/248) No match
[8370638a] (001/248) No match
[bec0261b] (001/248) No match
[d25a3cf3] (001/248) No match
[4951ca65] (001/248) No match
[f313c7f2] (001/248) No match
[62e4aeff] (001/248) No match
[4128d56d] (001/248) No match
[f6abcdfa] (001/248) No match
[8f100221] (001/248) No match

==== Log checksum F33138E48D17031B21A3FE15C75E4DC1C82816BF2DE130E03A07E74CCE3CE04C ====

REM DATE 1979
REM DISCID 4C09FB07
REM COMMENT “ExactAudioCopy v1.0b3”
CATALOG 7567924430205
PERFORMER “Led Zeppelin”
TITLE “In Through The Out Door”
FILE “Led Zeppelin – In Through The Out Door.flac” WAVE
TRACK 01 AUDIO
TITLE “In The Evening”
PERFORMER “Led Zeppelin”
INDEX 01 00:00:00
TRACK 02 AUDIO
TITLE “South Bound Saurez”
PERFORMER “Led Zeppelin”
INDEX 00 06:49:30
INDEX 01 06:50:60
TRACK 03 AUDIO
TITLE “Fool In The Rain”
PERFORMER “Led Zeppelin”
INDEX 00 11:03:47
INDEX 01 11:05:05
TRACK 04 AUDIO
TITLE “Hot Dog”
PERFORMER “Led Zeppelin”
INDEX 00 17:17:70
INDEX 01 17:18:02
TRACK 05 AUDIO
TITLE “Carouselambra”
PERFORMER “Led Zeppelin”
INDEX 00 20:34:40
INDEX 01 20:35:07
TRACK 06 AUDIO
TITLE “All My Love”
PERFORMER “Led Zeppelin”
INDEX 00 31:07:27
INDEX 01 31:09:35
TRACK 07 AUDIO
TITLE “I’m Gonna Crawl”
PERFORMER “Led Zeppelin”
INDEX 00 37:01:12
INDEX 01 37:05:42


Leave a Reply

Your email address will not be published. Required fields are marked *

This site uses Akismet to reduce spam. Learn how your comment data is processed.