Led Zeppelin – In Through The Out Door (Limited Remastered Japanese Edition)




No Cover available

Artist: Led Zeppelin
Year: 1979/2012
Genre: Rock
Notes: Discogs
Add. Notes: Limited Remastered Japanese Edition
Watch Songs on: YouTube
Cover incl.: Yes
Encoder: FLAC
Bitrate: ~900 kBit/s (44.1 kHz/16 Bit/s)
Log & Cue incl.: Yes/Yes
Size: 478,1 MB
Password: “slam” (without ” “)


All Downloads/Hosters are compatible

Download 1
KatFile.com
Turbobit.net
Rapidgator.net
FileFactory.com
Download 2
KatFile.com
Turbobit.net
Rapidgator.net
FileFactory.com

Tracklist:

1 In The Evening 6:49
2 South Bound Saurez 4:12
3 Fool In The Rain 6:12
4 Hot Dog 3:17
5 Carouselambra 10:32
6 All My Love 5:53
7 I'm Gonna Crawl 5:30

EAC-Log, CUE-Sheed & NFO:

Click to open spoiler
Exact Audio Copy V1.0 beta 3 from 29. August 2011

EAC extraction logfile from 15. December 2012, 16:39

Led Zeppelin / In Through The Out Door

Used drive : MATSHITADVD-RAM UJ-850S Adapter: 1 ID: 0

Read mode : Secure
Utilize accurate stream : Yes
Defeat audio cache : Yes
Make use of C2 pointers : No

Read offset correction : 102
Overread into Lead-In and Lead-Out : No
Fill up missing offset samples with silence : Yes
Delete leading and trailing silent blocks : No
Null samples used in CRC calculations : Yes
Used interface : Native Win32 interface for Win NT & 2000

Used output format : User Defined Encoder
Selected bitrate : 128 kBit/s
Quality : High
Add ID3 tag : No
Command line compressor : C:\Program Files\Exact Audio Copy\Flac\flac.exe
Additional command line options : -V -8 -T “Date=%year%” -T “Genre=%genre%” %source%

TOC of the extracted CD

Track | Start | Length | Start sector | End sector
———————————————————
1 | 0:00.00 | 6:51.00 | 0 | 30824
2 | 6:51.00 | 4:14.25 | 30825 | 49899
3 | 11:05.25 | 6:12.68 | 49900 | 77867
4 | 17:18.18 | 3:17.10 | 77868 | 92652
5 | 20:35.28 | 10:34.27 | 92653 | 140229
6 | 31:09.55 | 5:56.18 | 140230 | 166947
7 | 37:05.73 | 5:30.12 | 166948 | 191709

Range status and errors

Selected range

Filename C:\Users\ALIK\Desktop\music\2012. 10 LIMITED CELEBRATION DAY VERSION CD SET-JAPAN CD AP50\Led Zeppelin – In Through The Out Door\Led Zeppelin – In Through The Out Door.wav

Peak level 100.0 %
Extraction speed 2.3 X
Range quality 100.0 %
Test CRC AAE4CD3D
Copy CRC AAE4CD3D
Copy OK

No errors occurred

AccurateRip summary

Track 1 accurately ripped (confidence 12) [B045969C] (AR v2)
Track 2 accurately ripped (confidence 12) [8884A5B4] (AR v2)
Track 3 accurately ripped (confidence 12) [63460ACF] (AR v2)
Track 4 accurately ripped (confidence 12) [854B0706] (AR v2)
Track 5 accurately ripped (confidence 12) [80A273E7] (AR v2)
Track 6 accurately ripped (confidence 12) [A990E02C] (AR v2)
Track 7 accurately ripped (confidence 12) [11DED540] (AR v2)

All tracks accurately ripped

End of status report

—- CUETools DB Plugin V2.1.3

[CTDB TOCID: WaLzBbyPyudCrlpqOXusu0.piYs-] found, Submit result: WaLzBbyPyudCrlpqOXusu0.piYs- has been confirmed
[65a00820] (42/42) Accurately ripped

==== Log checksum C7485A4C2E3C91008A9F01D87ACB22F2E2AA8BA85BC0DBA277C2A90798B3EEE2 ====

REM GENRE “Hard Rock”
REM DATE 1979
REM DISCID 4D09FC07
REM COMMENT “ExactAudioCopy v1.0b3”
CATALOG 4943674055876
PERFORMER “Led Zeppelin”
TITLE “In Through The Out Door”
FILE “Led Zeppelin – In Through The Out Door.flac” WAVE
TRACK 01 AUDIO
TITLE “In The Evening”
PERFORMER “Led Zeppelin”
ISRC USAT29900628
INDEX 01 00:00:00
TRACK 02 AUDIO
TITLE “South Bound Saurez”
PERFORMER “Led Zeppelin”
ISRC USAT20000598
INDEX 00 06:49:73
INDEX 01 06:51:00
TRACK 03 AUDIO
TITLE “Fool In The Rain”
PERFORMER “Led Zeppelin”
ISRC USAT29900635
INDEX 00 11:04:10
INDEX 01 11:05:25
TRACK 04 AUDIO
TITLE “Hot Dog”
PERFORMER “Led Zeppelin”
ISRC USAT20000596
INDEX 01 17:18:18
TRACK 05 AUDIO
TITLE “Carouselambra”
PERFORMER “Led Zeppelin”
ISRC USAT20000597
INDEX 00 20:35:03
INDEX 01 20:35:28
TRACK 06 AUDIO
TITLE “All My Love”
PERFORMER “Led Zeppelin”
ISRC USAT29900640
INDEX 00 31:07:65
INDEX 01 31:09:55
TRACK 07 AUDIO
TITLE “I’m Gonna Crawl”
PERFORMER “Led Zeppelin”
ISRC USAT29900639
INDEX 00 37:01:53
INDEX 01 37:05:73


Leave a Reply

Your email address will not be published. Required fields are marked *

Enter the text from the image below
 

This site uses Akismet to reduce spam. Learn how your comment data is processed.