Led Zeppelin – In Through The Out Door (Japanese Edition)




Artist: Led Zeppelin
Year: 1979/1986
Genre: Rock
Notes: Discogs
Add. Notes: Japanese Edition
Cover incl.: Yes
Encoder: FLAC
Bitrate: ~800 kBit/s (44.1 kHz/16 Bit/s)
Log & Cue incl.: Yes
Size: 464 MB
Password: “slam” (without ” “)


All Downloads/Hosters are compatible

Download 1
KatFile.com
Rapidgator.net
Turbobit.net
FileFactory.com
Download 2
KatFile.com
Rapidgator.net
Turbobit.net
FileFactory.com

Tracklist:

1. In The Evening
2. South Bound Saurez
3. Fool In The Rain
4. Hot Dog
5. Carouselambra
6. All My Love
7. I'm Gonna Crawl

EAC-Log, CUE-Sheed & NFO:

Click to open spoiler
Exact Audio Copy V0.99 prebeta 5 from 4. May 2009

EAC extraction logfile from 26. September 2013, 19:43

Led Zeppelin / In Through the Out Door

Used drive : PLEXTOR DVDR PX-L890SA Adapter: 1 ID: 0

Read mode : Secure
Utilize accurate stream : Yes
Defeat audio cache : Yes
Make use of C2 pointers : No

Read offset correction : 6
Overread into Lead-In and Lead-Out : No
Fill up missing offset samples with silence : Yes
Delete leading and trailing silent blocks : No
Null samples used in CRC calculations : Yes
Used interface : Native Win32 interface for Win NT & 2000

Used output format : User Defined Encoder
Selected bitrate : 768 kBit/s
Quality : High
Add ID3 tag : No
Command line compressor : d:\Program Files\Exact Audio Copy\FLAC\FLAC.EXE
Additional command line options : -T “DATE=%y” -T “GENRE=%m” -8 -V %s

TOC of the extracted CD

Track | Start | Length | Start sector | End sector
———————————————————
1 | 0:00.00 | 6:52.45 | 0 | 30944
2 | 6:52.45 | 4:13.57 | 30945 | 49976
3 | 11:06.27 | 6:10.50 | 49977 | 77776
4 | 17:17.02 | 3:17.73 | 77777 | 92624
5 | 20:35.00 | 10:34.17 | 92625 | 140191
6 | 31:09.17 | 5:55.53 | 140192 | 166869
7 | 37:04.70 | 5:30.42 | 166870 | 191661

Range status and errors

Selected range

Filename H:\MUSIC\COLLECTION\Led Zeppelin\1979 In Through the Out Door (32Xd 423)\Led Zeppelin – In Through the Out Door.wav

Peak level 96.0 %
Range quality 99.9 %
Test CRC 70FE5F2B
Copy CRC 70FE5F2B
Copy OK

No errors occurred

AccurateRip summary

Track 1 cannot be verified as accurate (confidence 8) [841D3D18], AccurateRip returned [7D5EA1A4]
Track 2 cannot be verified as accurate (confidence 8) [3F486E8E], AccurateRip returned [B3A8120D]
Track 3 cannot be verified as accurate (confidence 8) [AB22DEF7], AccurateRip returned [5C6CED6E]
Track 4 cannot be verified as accurate (confidence 8) [F990E12B], AccurateRip returned [FEFF745E]
Track 5 cannot be verified as accurate (confidence 8) [B35B8A7C], AccurateRip returned [024C63CF]
Track 6 cannot be verified as accurate (confidence 8) [2F2DB756], AccurateRip returned [52CA1F2F]
Track 7 cannot be verified as accurate (confidence 8) [910912FA], AccurateRip returned [E10EC91D]

No tracks could be verified as accurate
You may have a different pressing from the one(s) in the database

End of status report

REM GENRE Rock
REM DATE 1979
REM DISCID 5609FB07
REM COMMENT “ExactAudioCopy v0.99pb5”
PERFORMER “Led Zeppelin”
TITLE “In Through the Out Door”
FILE “Led Zeppelin – In Through the Out Door.flac” WAVE
TRACK 01 AUDIO
TITLE “In the Evening”
PERFORMER “Led Zeppelin”
INDEX 01 00:00:00
TRACK 02 AUDIO
TITLE “South Bound Saurez”
PERFORMER “Led Zeppelin”
INDEX 00 06:51:37
INDEX 01 06:52:45
TRACK 03 AUDIO
TITLE “Fool in the Rain”
PERFORMER “Led Zeppelin”
INDEX 00 11:06:00
INDEX 01 11:06:27
TRACK 04 AUDIO
TITLE “Hot Dog”
PERFORMER “Led Zeppelin”
INDEX 01 17:17:02
TRACK 05 AUDIO
TITLE “Carouselambra”
PERFORMER “Led Zeppelin”
INDEX 00 20:34:00
INDEX 01 20:35:00
TRACK 06 AUDIO
TITLE “All My Love”
PERFORMER “Led Zeppelin”
INDEX 00 31:07:17
INDEX 01 31:09:17
TRACK 07 AUDIO
TITLE “I’m Gonna Crawl”
PERFORMER “Led Zeppelin”
INDEX 00 37:02:12
INDEX 01 37:04:70


Leave a Reply

Your email address will not be published. Required fields are marked *

Enter the text from the image below
 

This site uses Akismet to reduce spam. Learn how your comment data is processed.