Led Zeppelin – I (Japanese Edition)




Artist: Led Zeppelin
Year: 1969/1986
Genre: Rock
Notes: Discogs
Add. Notes: Japanese Edition
Cover incl.: Yes
Encoder: FLAC
Bitrate: ~900 kBit/s (44.1 kHz/16 Bit/s)
Log & Cue incl.: Yes
Size: 450,5 MB
Password: “slam” (without ” “)


All Downloads/Hosters are compatible

Download 1
Turbobit.net
KatFile.com
Rapidgator.net
NitroFlare.com
Download 2
Turbobit.net
KatFile.com
Rapidgator.net
NitroFlare.com

Tracklist:

1 - Good Times Bad Times - 2:46
2 - Babe I'm Gonna Leave You - 6:41
3 - You Shook Me - 6:28
4 - Dazed And Confused - 6:26
5 - Your Time Is Gonna Come - 4:14
6 - Black Mountain Side - 2:05
7 - Communication Breakdown - 2:27
8 - I Can't Quit You Baby - 4:42
9 - How Many More Times - 8:28

EAC-Log, CUE-Sheed & NFO:

Click to open spoiler
Exact Audio Copy V0.99 prebeta 5 from 4. May 2009

EAC extraction logfile from 21. August 2013, 12:09

Led Zeppelin / Led Zeppelin

Used drive : PLEXTOR DVDR PX-L890SA Adapter: 1 ID: 0

Read mode : Secure
Utilize accurate stream : Yes
Defeat audio cache : Yes
Make use of C2 pointers : No

Read offset correction : 6
Overread into Lead-In and Lead-Out : No
Fill up missing offset samples with silence : Yes
Delete leading and trailing silent blocks : No
Null samples used in CRC calculations : Yes
Used interface : Native Win32 interface for Win NT & 2000

Used output format : User Defined Encoder
Selected bitrate : 768 kBit/s
Quality : High
Add ID3 tag : No
Command line compressor : d:\Program Files\Exact Audio Copy\FLAC\FLAC.EXE
Additional command line options : -T “DATE=%y” -T “GENRE=%m” -8 -V %s

TOC of the extracted CD

Track | Start | Length | Start sector | End sector
———————————————————
1 | 0:00.00 | 2:46.40 | 0 | 12489
2 | 2:46.40 | 6:42.55 | 12490 | 42694
3 | 9:29.20 | 6:28.22 | 42695 | 71816
4 | 15:57.42 | 6:28.00 | 71817 | 100916
5 | 22:25.42 | 4:34.58 | 100917 | 121524
6 | 27:00.25 | 2:12.17 | 121525 | 131441
7 | 29:12.42 | 2:31.40 | 131442 | 142806
8 | 31:44.07 | 4:42.43 | 142807 | 163999
9 | 36:26.50 | 8:30.00 | 164000 | 202249

Range status and errors

Selected range

Filename H:\MUSIC\COLLECTION\Led Zeppelin\1969 Led Zeppelin (Japan 32XD 520)\Led Zeppelin – Led Zeppelin.wav

Peak level 100.0 %
Range quality 100.0 %
Test CRC 484F879C
Copy CRC 484F879C
Copy OK

No errors occurred

AccurateRip summary

Track 1 accurately ripped (confidence 7) [29B992D9]
Track 2 accurately ripped (confidence 7) [39726FA8]
Track 3 accurately ripped (confidence 7) [CB64A3E4]
Track 4 accurately ripped (confidence 7) [805F91FA]
Track 5 accurately ripped (confidence 7) [8919BDE3]
Track 6 accurately ripped (confidence 8) [BC91DF7A]
Track 7 accurately ripped (confidence 7) [5054CE66]
Track 8 accurately ripped (confidence 7) [20B5F409]
Track 9 accurately ripped (confidence 7) [DCBEE183]

All tracks accurately ripped

End of status report

REM GENRE Rock
REM DATE 1969
REM DISCID 830A8809
REM COMMENT “ExactAudioCopy v0.99pb5”
PERFORMER “Led Zeppelin”
TITLE “Led Zeppelin”
FILE “Led Zeppelin – Led Zeppelin.flac” WAVE
TRACK 01 AUDIO
TITLE “Good Times Bad Times”
PERFORMER “Led Zeppelin”
INDEX 01 00:00:00
TRACK 02 AUDIO
TITLE “Babe I’m Gonna Leave You”
PERFORMER “Led Zeppelin”
INDEX 01 02:46:40
TRACK 03 AUDIO
TITLE “You Shook Me”
PERFORMER “Led Zeppelin”
INDEX 01 09:29:20
TRACK 04 AUDIO
TITLE “Dazed And Confused”
PERFORMER “Led Zeppelin”
INDEX 01 15:57:42
TRACK 05 AUDIO
TITLE “Your Time Is Gonna Come”
PERFORMER “Led Zeppelin”
INDEX 01 22:25:42
TRACK 06 AUDIO
TITLE “Black Mountain Side”
PERFORMER “Led Zeppelin”
INDEX 01 27:00:25
TRACK 07 AUDIO
TITLE “Communication Breakdown”
PERFORMER “Led Zeppelin”
INDEX 01 29:12:42
TRACK 08 AUDIO
TITLE “I Can’t Quit You Baby”
PERFORMER “Led Zeppelin”
INDEX 00 31:43:30
INDEX 01 31:44:07
TRACK 09 AUDIO
TITLE “How Many More Times”
PERFORMER “Led Zeppelin”
INDEX 01 36:26:50


Leave a Reply

Your email address will not be published. Required fields are marked *

Enter the text from the image below
 

This site uses Akismet to reduce spam. Learn how your comment data is processed.