Led Zeppelin – How The West Was Won




No Cover available

Artist: Led Zeppelin
Year: 2003
Genre: Rock
Notes: Discogs
Add. Notes:
Cover incl.: Yes
Encoder: FLAC
Bitrate: ~900 kBit/s (44.1 kHz/16 Bit/s)
Log & Cue incl.: Yes/Yes
Size: 1042,9 MB
Password: “slam” (without ” “)


All Downloads/Hosters are compatible

Download 1
KatFile.com
Turbobit.net
FileFactory.com
Rapidgator.net
Download 2
KatFile.com
Turbobit.net
FileFactory.com
Rapidgator.net

Tracklist:

CD 1
1 LA Drone 0:14
2 Immigrant Song 3:42
3 Heartbreaker 7:25
4 Black Dog 5:41
5 Over The Hills And Far Away 5:08
6 Since I've Been Loving You 8:02
7 Stairway To Heaven 9:38
8 Going To California 5:37
9 That's The Way 5:54
10 Bron-Yr-Aur Stomp 4:55
Dazed And Confused (25:25)

CD 2
1a Walter's Walk 
1b The Crunge 
2 What Is And What Should Never Be 4:41
3 Dancing Days 3:42
4 Moby Dick 19:20
Whole Lotta Love (23:08)

CD 3
1a Boogie Chillun 2:37
1b Let's Have A Party 1:52
1c Hello Marylou 3:08
1d Going Down Slow 8:39
2 Rock And Roll 3:56
3 The Ocean 4:21
Bring It On Home (9:30)
4a Bring It On Back 

EAC-Log, CUE-Sheed & NFO:

Click to open spoiler
Exact Audio Copy V1.0 beta 3 from 29. August 2011

EAC extraction logfile from 20. November 2013, 20:08

Led Zeppelin / How The West Was Won (CD 1)

Used drive : PLEXTOR DVDR PX-L890SA Adapter: 1 ID: 0

Read mode : Secure
Utilize accurate stream : Yes
Defeat audio cache : Yes
Make use of C2 pointers : No

Read offset correction : 6
Overread into Lead-In and Lead-Out : No
Fill up missing offset samples with silence : Yes
Delete leading and trailing silent blocks : No
Null samples used in CRC calculations : Yes
Used interface : Native Win32 interface for Win NT & 2000

Used output format : User Defined Encoder
Selected bitrate : 768 kBit/s
Quality : High
Add ID3 tag : No
Command line compressor : G:\Program Files\Exact Audio Copy\FLAC\FLAC.EXE
Additional command line options : -V -8 -T “Date=%year%” -T “Genre=%genre%” %source%

TOC of the extracted CD

Track | Start | Length | Start sector | End sector
———————————————————
1 | 0:00.00 | 0:14.44 | 0 | 1093
2 | 0:14.44 | 3:41.48 | 1094 | 17716
3 | 3:56.17 | 7:24.08 | 17717 | 51024
4 | 11:20.25 | 5:40.34 | 51025 | 76558
5 | 17:00.59 | 5:07.46 | 76559 | 99629
6 | 22:08.30 | 8:01.48 | 99630 | 135752
7 | 30:10.03 | 9:37.00 | 135753 | 179027
8 | 39:47.03 | 5:36.74 | 179028 | 204301
9 | 45:24.02 | 5:53.52 | 204302 | 230828
10 | 51:17.54 | 4:52.04 | 230829 | 252732

Range status and errors

Selected range

Filename H:\MUSIC\2003. Led Zeppelin – How West Was Won (Swan Song 7567-83587-2, Germany)\disc1\Led Zeppelin – How The West Was Won (CD 1).wav

Peak level 100.0 %
Extraction speed 6.2 X
Range quality 99.9 %
Test CRC 01C75118
Copy CRC 01C75118
Copy OK

No errors occurred

AccurateRip summary

Track 1 accurately ripped (confidence 170) [42771089] (AR v2)
Track 2 accurately ripped (confidence 170) [AE4E2A39] (AR v2)
Track 3 accurately ripped (confidence 168) [40ECA196] (AR v2)
Track 4 accurately ripped (confidence 168) [F8FB0983] (AR v2)
Track 5 accurately ripped (confidence 167) [2C1CD74E] (AR v2)
Track 6 accurately ripped (confidence 167) [E44145E0] (AR v2)
Track 7 accurately ripped (confidence 164) [5DA220CA] (AR v2)
Track 8 accurately ripped (confidence 164) [216A8906] (AR v2)
Track 9 accurately ripped (confidence 161) [A457D67F] (AR v2)
Track 10 accurately ripped (confidence 161) [D7D99DB4] (AR v2)

All tracks accurately ripped

End of status report

—- CUETools DB Plugin V2.1.3

[CTDB TOCID: xDBj6df3aBjmrMYiKvkgNxAdPS0-] found, Submit result: xDBj6df3aBjmrMYiKvkgNxAdPS0- has been confirmed
[3013a3e0] (717/739) Accurately ripped
[8964d4b6] (001/739) No match
[65f1be8a] (001/739) No match
[a2c8f00d] (001/739) No match
[1c2f11b4] (001/739) No match
[c1b007ef] (001/739) No match
[f29f299f] (001/739) No match
[d1d311c5] (001/739) No match
[b0caabe8] (002/739) No match
[775904d8] (001/739) No match
[0476ebdd] (001/739) No match
[60d260e0] (001/739) No match
[20dff3f7] (001/739) No match
[caa530ae] (001/739) No match
[74fa314b] (001/739) No match
[e3c1efd8] (001/739) No match
[bc726d6d] (001/739) No match
[9744198d] (001/739) No match
[6154134f] (001/739) No match
[80d6f452] (001/739) No match
[8661b04b] (001/739) No match
[79beb04b] (001/739) No match

==== Log checksum FCCD84B3B40C30959286A8BC0075727C380641C8023D750006AB1111873120DA ====

Exact Audio Copy V1.0 beta 3 from 29. August 2011

EAC extraction logfile from 20. November 2013, 20:51

Led Zeppelin / How the West Was Won (CD 2)

Used drive : Optiarc DVD RW AD-7263S Adapter: 2 ID: 0

Read mode : Secure
Utilize accurate stream : Yes
Defeat audio cache : Yes
Make use of C2 pointers : No

Read offset correction : 48
Overread into Lead-In and Lead-Out : No
Fill up missing offset samples with silence : Yes
Delete leading and trailing silent blocks : No
Null samples used in CRC calculations : Yes
Used interface : Native Win32 interface for Win NT & 2000

Used output format : User Defined Encoder
Selected bitrate : 768 kBit/s
Quality : High
Add ID3 tag : No
Command line compressor : G:\Program Files\Exact Audio Copy\FLAC\FLAC.EXE
Additional command line options : -V -8 -T “Date=%year%” -T “Genre=%genre%” %source%

TOC of the extracted CD

Track | Start | Length | Start sector | End sector
———————————————————
1 | 0:00.00 | 25:25.19 | 0 | 114393
2 | 25:25.19 | 4:39.67 | 114394 | 135385
3 | 30:05.11 | 3:41.42 | 135386 | 152002
4 | 33:46.53 | 19:23.26 | 152003 | 239253

Range status and errors

Selected range

Filename H:\MUSIC\2003. Led Zeppelin – How West Was Won (Swan Song 7567-83587-2, Germany)\disc2\Led Zeppelin – How the West Was Won (CD 2).wav

Peak level 100.0 %
Extraction speed 3.8 X
Range quality 100.0 %
Test CRC A261D4E3
Copy CRC A261D4E3
Copy OK

No errors occurred

AccurateRip summary

Track 1 accurately ripped (confidence 159) [2F5C22E8] (AR v2)
Track 2 accurately ripped (confidence 163) [78702423] (AR v2)
Track 3 accurately ripped (confidence 162) [ED98002F] (AR v2)
Track 4 accurately ripped (confidence 159) [50A460EA] (AR v2)

All tracks accurately ripped

End of status report

—- CUETools DB Plugin V2.1.3

[CTDB TOCID: 4bNluC8rR8Pc.YTLrY3ZxX3wZJU-] found, Submit result: 4bNluC8rR8Pc.YTLrY3ZxX3wZJU- has been confirmed
[696a2db2] (651/665) Accurately ripped
[428ce840] (002/665) No match
[4707c9fc] (001/665) No match
[8e1fb819] (001/665) No match
[ca555397] (001/665) No match
[3310ac82] (001/665) No match
[2b7f0b08] (001/665) No match
[ae9b7f78] (001/665) No match
[731cc364] (001/665) No match
[4e1b7269] (001/665) No match
[1e80412e] (001/665) No match
[c1479490] (001/665) No match
[f9051677] (001/665) No match
[a399a4f3] (001/665) No match

==== Log checksum A24EB8029EEACDA5F14F7AD2829AC6D73BB09FB9365C61371727EE946910E116 ====

Exact Audio Copy V1.0 beta 3 from 29. August 2011

EAC extraction logfile from 20. November 2013, 21:23

Led Zeppelin / How The West Was Won (Disc 3)

Used drive : Optiarc DVD RW AD-7263S Adapter: 2 ID: 0

Read mode : Secure
Utilize accurate stream : Yes
Defeat audio cache : Yes
Make use of C2 pointers : No

Read offset correction : 48
Overread into Lead-In and Lead-Out : No
Fill up missing offset samples with silence : Yes
Delete leading and trailing silent blocks : No
Null samples used in CRC calculations : Yes
Used interface : Native Win32 interface for Win NT & 2000

Used output format : User Defined Encoder
Selected bitrate : 768 kBit/s
Quality : High
Add ID3 tag : No
Command line compressor : G:\Program Files\Exact Audio Copy\FLAC\FLAC.EXE
Additional command line options : -V -8 -T “Date=%year%” -T “Genre=%genre%” %source%

TOC of the extracted CD

Track | Start | Length | Start sector | End sector
———————————————————
1 | 0:00.00 | 23:07.12 | 0 | 104036
2 | 23:07.12 | 3:55.37 | 104037 | 121698
3 | 27:02.49 | 4:19.71 | 121699 | 141194
4 | 31:22.45 | 9:29.56 | 141195 | 183925

Range status and errors

Selected range

Filename H:\MUSIC\2003. Led Zeppelin – How West Was Won (Swan Song 7567-83587-2, Germany)\disc3\Led Zeppelin – How The West Was Won (Disc 3).wav

Peak level 100.0 %
Extraction speed 3.6 X
Range quality 100.0 %
Test CRC DAECE595
Copy CRC DAECE595
Copy OK

No errors occurred

AccurateRip summary

Track 1 accurately ripped (confidence 160) [0B43E8C0] (AR v2)
Track 2 accurately ripped (confidence 163) [10B63DC8] (AR v2)
Track 3 accurately ripped (confidence 164) [FCE91257] (AR v2)
Track 4 accurately ripped (confidence 162) [25E45DBA] (AR v2)

All tracks accurately ripped

End of status report

—- CUETools DB Plugin V2.1.3

[CTDB TOCID: ypQLJg9LIRm5J3470lMKwUkyuWg-] found, Submit result: ypQLJg9LIRm5J3470lMKwUkyuWg- has been confirmed
[af93e20c] (725/739) Accurately ripped
[48d915f5] (001/739) No match
[6af5b049] (001/739) No match
[27dae913] (001/739) No match
[1c268aae] (001/739) No match
[3bd85804] (001/739) No match
[a4cadc0a] (001/739) No match
[e01ee503] (001/739) No match
[8e890430] (001/739) No match
[6c99d4a6] (001/739) No match
[9cb8e15f] (001/739) No match
[fb0ffa1a] (001/739) No match
[7ab23ad8] (001/739) No match
[6fdc0439] (001/739) No match
[4a59eecb] (001/739) No match

==== Log checksum 84EA1DE6660CBE6AAD9F465DBA8EE8AE4A51880C61C9E313BDFA3DFCFA8E58FB ====

REM GENRE “Hard Rock”
REM DATE 2003
REM DISCID 780D290A
REM COMMENT “ExactAudioCopy v1.0b3”
PERFORMER “Led Zeppelin”
TITLE “How The West Was Won (CD 1)”
FILE “How The West Was Won (CD 1).flac” WAVE
TRACK 01 AUDIO
TITLE “LA Drone (Long Beach Arena)”
PERFORMER “Led Zeppelin”
FLAGS DCP
INDEX 01 00:00:00
TRACK 02 AUDIO
TITLE “Immigrant Song (Long Beach Arena)”
PERFORMER “Led Zeppelin”
FLAGS DCP
INDEX 00 00:14:43
INDEX 01 00:14:44
TRACK 03 AUDIO
TITLE “Heartbreaker (Long Beach Arena)”
PERFORMER “Led Zeppelin”
FLAGS DCP
INDEX 01 03:56:17
TRACK 04 AUDIO
TITLE “Black Dog (LA Forum)”
PERFORMER “Led Zeppelin”
FLAGS DCP
INDEX 00 11:20:24
INDEX 01 11:20:25
TRACK 05 AUDIO
TITLE “Over The Hills And Far Away (LA Forum)”
PERFORMER “Led Zeppelin”
FLAGS DCP
INDEX 00 17:00:58
INDEX 01 17:00:59
TRACK 06 AUDIO
TITLE “Since I’ve Been Loving You (Long Beach Arena)”
PERFORMER “Led Zeppelin”
FLAGS DCP
INDEX 00 22:08:29
INDEX 01 22:08:30
TRACK 07 AUDIO
TITLE “Stairway To Heaven (Long Beach Arena)”
PERFORMER “Led Zeppelin”
FLAGS DCP
INDEX 01 30:10:03
TRACK 08 AUDIO
TITLE “Going To California (Long Beach Arena)”
PERFORMER “Led Zeppelin”
FLAGS DCP
INDEX 00 39:47:02
INDEX 01 39:47:03
TRACK 09 AUDIO
TITLE “That’s The Way (LA Forum)”
PERFORMER “Led Zeppelin”
FLAGS DCP
INDEX 00 45:24:01
INDEX 01 45:24:02
TRACK 10 AUDIO
TITLE “Bron-Yr-Aur Stomp (Long Beach Arena)”
PERFORMER “Led Zeppelin”
FLAGS DCP
INDEX 00 51:17:53
INDEX 01 51:17:54

REM GENRE Rock
REM DATE 1972
REM DISCID 2D0C7604
REM COMMENT “ExactAudioCopy v1.0b3”
PERFORMER “Led Zeppelin”
TITLE “How the West Was Won (CD 2)”
FILE “How the West Was Won (CD 2).flac” WAVE
TRACK 01 AUDIO
TITLE “Dazed and Confused (LA Forum)”
PERFORMER “Led Zeppelin”
FLAGS DCP
INDEX 01 00:00:00
TRACK 02 AUDIO
TITLE “What Is and What Should Never Be (Long Beach Arena)”
PERFORMER “Led Zeppelin”
FLAGS DCP
INDEX 00 25:25:17
INDEX 01 25:25:19
TRACK 03 AUDIO
TITLE “Dancing Days (Long Beach Arena)”
PERFORMER “Led Zeppelin”
FLAGS DCP
INDEX 01 30:05:11
TRACK 04 AUDIO
TITLE “Moby Dick (LA Forum)”
PERFORMER “Led Zeppelin”
FLAGS DCP
INDEX 01 33:46:53

REM GENRE Rock
REM DATE 2003
REM DISCID 39099404
REM COMMENT “ExactAudioCopy v1.0b3”
PERFORMER “Led Zeppelin”
TITLE “How The West Was Won (Disc 3)”
FILE “How The West Was Won (Disc 3).flac” WAVE
TRACK 01 AUDIO
TITLE “Whole Lotta Love”
PERFORMER “Led Zeppelin”
FLAGS DCP
INDEX 01 00:00:00
TRACK 02 AUDIO
TITLE “Rock And Roll”
PERFORMER “Led Zeppelin”
FLAGS DCP
INDEX 00 23:07:08
INDEX 01 23:07:12
TRACK 03 AUDIO
TITLE “The Ocean”
PERFORMER “Led Zeppelin”
FLAGS DCP
INDEX 00 27:02:45
INDEX 01 27:02:49
TRACK 04 AUDIO
TITLE “Bring It On Home”
PERFORMER “Led Zeppelin”
FLAGS DCP
INDEX 00 31:22:41
INDEX 01 31:22:45


Leave a Reply

Your email address will not be published. Required fields are marked *

Enter the text from the image below
 

This site uses Akismet to reduce spam. Learn how your comment data is processed.