Led Zeppelin – How The West Was Won (Japanese Edition)




Artist: Led Zeppelin
Year: 2003
Genre: Rock
Notes: Discogs
Add. Notes: Japanese Edition
Cover incl.: Yes
Encoder: FLAC
Bitrate: ~900 kBit/s (44.1 kHz/16 Bit/s)
Log & Cue incl.: Yes
Size: 1274,4 MB
Password: “slam” (without ” “)


All Downloads/Hosters are compatible

Download 1
KatFile.com
Turbobit.net
FileFactory.com
Rapidgator.net
Download 2
KatFile.com
Turbobit.net
FileFactory.com
Rapidgator.net

Tracklist:

1-1 LA Drone 0:14
1-2 Immigrant Song 3:41
1-3 Heartbreaker 7:24
1-4 Black Dog 5:40
1-5 Over The Hills And Far Away 5:07
1-6 Since I've Been Loving You 8:01
1-7 Stairway To Heaven 9:37
1-8 Going To California 5:36
1-9 That's The Way 5:53
1-10 Bron-Yr-Aur Stomp 4:52
2-1a Dazed And Confused 25:25
2-1b Walter's Walk 
2-1c The Crunge 
2-2 What Is And What Should Never Be 4:39
2-3 Dancing Days 3:41
2-4 Moby Dick 19:23
3-1a Whole Lotta Love 23:07
3-1b Boogie Chillun 
3-1c Let's Have A Party 
3-1d Hello Marylou 
3-1e Going Down Slow 
3-2 Rock And Roll 3:55
3-3 The Ocean 4:19
3-4a Bring It On Home 9:29
3-4B Bring It On Back 

EAC-Log, CUE-Sheed & NFO:

Click to open spoiler
Exact Audio Copy V1.0 beta 3 from 29. August 2011

EAC extraction logfile from 24. November 2013, 17:02

Led Zeppelin / How The West Was Won (CD 1)

Used drive : PLEXTOR DVDR PX-L890SA Adapter: 1 ID: 0

Read mode : Secure
Utilize accurate stream : Yes
Defeat audio cache : Yes
Make use of C2 pointers : No

Read offset correction : 6
Overread into Lead-In and Lead-Out : No
Fill up missing offset samples with silence : Yes
Delete leading and trailing silent blocks : No
Null samples used in CRC calculations : Yes
Used interface : Native Win32 interface for Win NT & 2000

Used output format : User Defined Encoder
Selected bitrate : 768 kBit/s
Quality : High
Add ID3 tag : No
Command line compressor : G:\Program Files\Exact Audio Copy\FLAC\FLAC.EXE
Additional command line options : -V -8 -T “Date=%year%” -T “Genre=%genre%” %source%

TOC of the extracted CD

Track | Start | Length | Start sector | End sector
———————————————————
1 | 0:00.00 | 0:14.42 | 0 | 1091
2 | 0:14.42 | 3:41.48 | 1092 | 17714
3 | 3:56.15 | 7:24.10 | 17715 | 51024
4 | 11:20.25 | 5:40.32 | 51025 | 76556
5 | 17:00.57 | 5:07.48 | 76557 | 99629
6 | 22:08.30 | 8:01.47 | 99630 | 135751
7 | 30:10.02 | 9:37.00 | 135752 | 179026
8 | 39:47.02 | 5:36.73 | 179027 | 204299
9 | 45:24.00 | 5:53.52 | 204300 | 230826
10 | 51:17.52 | 4:52.05 | 230827 | 252731

Range status and errors

Selected range

Filename H:\MUSIC\2003. Led Zeppelin – How The West Was Won (Swan Song WPCR11585-7, Japan)\disc1\How The West Was Won (CD 1).wav

Peak level 100.0 %
Extraction speed 5.8 X
Range quality 100.0 %
Test CRC 2A2AA786
Copy CRC 2A2AA786
Copy OK

No errors occurred

AccurateRip summary

Track 1 accurately ripped (confidence 15) [B9595C32] (AR v2)
Track 2 accurately ripped (confidence 15) [A8CC0E44] (AR v2)
Track 3 accurately ripped (confidence 15) [DE355E35] (AR v2)
Track 4 accurately ripped (confidence 15) [DE22ED01] (AR v2)
Track 5 accurately ripped (confidence 15) [E0E819BD] (AR v2)
Track 6 accurately ripped (confidence 14) [8ADC52D8] (AR v2)
Track 7 accurately ripped (confidence 15) [D1AFBDD3] (AR v2)
Track 8 accurately ripped (confidence 15) [99180EA2] (AR v2)
Track 9 accurately ripped (confidence 14) [C2FAEBDC] (AR v2)
Track 10 accurately ripped (confidence 14) [D6BAE8DB] (AR v2)

All tracks accurately ripped

End of status report

—- CUETools DB Plugin V2.1.3

[CTDB TOCID: DKgya9YcSxv3VzJj9Aqx.mBCgGY-] found, Submit result: already submitted
[a74acaa2] (23/23) Accurately ripped

==== Log checksum F5346E25DEF0279D1D324691B6FECEABC9902F2E187E2A573C3845DA8C7FE031 ====

Exact Audio Copy V1.0 beta 3 from 29. August 2011

EAC extraction logfile from 24. November 2013, 17:29

Led Zeppelin / How the West Was Won (CD 2)

Used drive : PLEXTOR DVDR PX-L890SA Adapter: 1 ID: 0

Read mode : Secure
Utilize accurate stream : Yes
Defeat audio cache : Yes
Make use of C2 pointers : No

Read offset correction : 6
Overread into Lead-In and Lead-Out : No
Fill up missing offset samples with silence : Yes
Delete leading and trailing silent blocks : No
Null samples used in CRC calculations : Yes
Used interface : Native Win32 interface for Win NT & 2000

Used output format : User Defined Encoder
Selected bitrate : 768 kBit/s
Quality : High
Add ID3 tag : No
Command line compressor : G:\Program Files\Exact Audio Copy\FLAC\FLAC.EXE
Additional command line options : -V -8 -T “Date=%year%” -T “Genre=%genre%” %source%

TOC of the extracted CD

Track | Start | Length | Start sector | End sector
———————————————————
1 | 0:00.00 | 25:25.17 | 0 | 114391
2 | 25:25.17 | 4:39.68 | 114392 | 135384
3 | 30:05.10 | 3:41.42 | 135385 | 152001
4 | 33:46.52 | 19:23.25 | 152002 | 239251

Range status and errors

Selected range

Filename H:\MUSIC\2003. Led Zeppelin – How The West Was Won (Swan Song WPCR11585-7, Japan)\disc2\How the West Was Won (CD 2).wav

Peak level 100.0 %
Extraction speed 5.7 X
Range quality 100.0 %
Test CRC 79578AD5
Copy CRC 79578AD5
Copy OK

No errors occurred

AccurateRip summary

Track 1 accurately ripped (confidence 13) [40A76AA8] (AR v2)
Track 2 accurately ripped (confidence 13) [1B81CABF] (AR v2)
Track 3 accurately ripped (confidence 13) [B669ACBD] (AR v2)
Track 4 accurately ripped (confidence 13) [520307CE] (AR v2)

All tracks accurately ripped

End of status report

—- CUETools DB Plugin V2.1.3

[CTDB TOCID: 6bXRVf0w2SOoCh07_4O6cUmP98k-] found, Submit result: already submitted
[0cdc5fa0] (14/16) Accurately ripped
[1fa58943] (01/16) Differs in 4945 samples @36:03:45,36:03:60,36:04:48,36:04:64,36:05:05,36:05:21,36:05:36,36:06:25,36:07:12-36:07:13,36:07:44-36:07:45,36:08:01,36:08:33,36:08:48,36:08:63-36:08:64,36:09:04-36:09:05,36:09:20-36:09:21,36:09:36-36:09:37,36:09:51-36:09:52,36:09:67-36:09:68,36:10:08-36:10:09,36:10:24-36:10:25,36:10:39-36:10:40,36:10:55-36:10:56,36:10:71-36:10:72,36:11:12-36:11:13,36:11:28-36:11:29,36:11:43-36:11:44,36:11:59-36:11:60,36:12:00-36:12:01,36:12:16-36:12:17,36:12:32-36:12:33,36:12:47-36:12:48,36:12:63-36:12:64,36:13:04-36:13:05,36:13:20-36:13:21,36:13:35-36:13:36,36:13:51-36:13:52,36:13:67-36:13:68,36:14:08,36:14:24-36:14:25,36:14:39-36:14:40,36:14:55-36:14:56,36:14:71-36:14:72,36:15:12-36:15:13,36:15:28,36:15:43-36:15:44,36:15:59-36:15:60,36:16:00-36:16:01,36:16:16,36:16:32,36:16:47-36:16:48,36:16:63-36:16:64,36:17:04,36:17:20-36:17:21,36:17:36,36:17:51,36:20:01,36:29:38,36:29:68,36:30:09-36:30:10,36:30:25-36:30:26,36:30:41-36:30:42,36:30:57-36:30:58,36:30:73-36:30:74,36:31:13-36:31:14,36:31:29-36:31:30,36:31:45-36:31:46,36:31:61-36:31:62,36:32:02-36:32:03,36:32:18-36:32:19,36:32:33-36:32:34,36:32:49-36:32:50,36:32:65-36:32:66,36:33:07,36:33:22-36:33:23,36:33:38,36:33:53-36:33:54,36:33:69-36:33:70,36:34:10-36:34:11,36:34:26-36:34:27,36:34:42-36:34:43,36:34:58-36:34:59,36:34:73-36:34:74,36:35:14-36:35:15,36:35:30-36:35:31,36:35:46-36:35:47,36:35:62-36:35:63,36:36:03-36:36:04,36:36:19,36:36:34-36:36:35,36:36:50-36:36:51,36:36:66-36:36:67,36:37:07-36:37:08,36:37:23-36:37:24,36:37:39-36:37:40,36:37:54-36:37:55,36:37:70-36:37:71,36:38:11-36:38:12,36:38:27-36:38:28,36:38:43-36:38:44,36:38:59-36:38:60,36:39:00,36:39:15-36:39:16,36:39:31-36:39:32,36:39:47-36:39:48,36:39:63-36:39:64,36:40:04-36:40:05,36:40:20-36:40:21,36:40:35-36:40:36,36:40:51-36:40:52,36:40:67-36:40:68,36:41:08,36:41:24-36:41:25,36:41:40-36:41:41,36:41:56-36:41:57,36:41:72,36:42:12-36:42:13,36:42:28-36:42:29,36:42:44-36:42:45,36:42:60-36:42:61,36:43:01-36:43:02,36:43:17,36:43:33,36:43:48-36:43:49,40:15:06-40:15:07,40:15:23,40:18:27,40:19:18,40:20:09
[5ae3aa6c] (01/16) No match
You can use CUETools to repair this rip.

==== Log checksum 786A58B3C129AEFA021340FFA049758CDB0AF8D0E7F5867F45F9CDE792836DD5 ====

Exact Audio Copy V1.0 beta 3 from 29. August 2011

EAC extraction logfile from 24. November 2013, 17:51

Led Zeppelin / How The West Was Won (Disc 3)

Used drive : PLEXTOR DVDR PX-L890SA Adapter: 1 ID: 0

Read mode : Secure
Utilize accurate stream : Yes
Defeat audio cache : Yes
Make use of C2 pointers : No

Read offset correction : 6
Overread into Lead-In and Lead-Out : No
Fill up missing offset samples with silence : Yes
Delete leading and trailing silent blocks : No
Null samples used in CRC calculations : Yes
Used interface : Native Win32 interface for Win NT & 2000

Used output format : User Defined Encoder
Selected bitrate : 768 kBit/s
Quality : High
Add ID3 tag : No
Command line compressor : G:\Program Files\Exact Audio Copy\FLAC\FLAC.EXE
Additional command line options : -V -8 -T “Date=%year%” -T “Genre=%genre%” %source%

TOC of the extracted CD

Track | Start | Length | Start sector | End sector
———————————————————
1 | 0:00.00 | 23:07.10 | 0 | 104034
2 | 23:07.10 | 3:55.37 | 104035 | 121696
3 | 27:02.47 | 4:19.73 | 121697 | 141194
4 | 31:22.45 | 9:29.55 | 141195 | 183924

Range status and errors

Selected range

Filename H:\MUSIC\2003. Led Zeppelin – How The West Was Won (Swan Song WPCR11585-7, Japan)\disc3\How The West Was Won (Disc 3).wav

Peak level 100.0 %
Extraction speed 5.3 X
Range quality 100.0 %
Test CRC ECA61AD6
Copy CRC ECA61AD6
Copy OK

No errors occurred

AccurateRip summary

Track 1 accurately ripped (confidence 12) [C14E2D3F] (AR v2)
Track 2 accurately ripped (confidence 12) [4E6F056D] (AR v2)
Track 3 accurately ripped (confidence 12) [BB1B075A] (AR v2)
Track 4 accurately ripped (confidence 12) [D235DDFE] (AR v2)

All tracks accurately ripped

End of status report

—- CUETools DB Plugin V2.1.3

[CTDB TOCID: EQcPvQD6OdPM3aB4bEKdxZq77B4-] found, Submit result: already submitted
[2b600360] (15/17) Accurately ripped
[fd1f8c22] (01/17) No match
[f708cb23] (01/17) No match

==== Log checksum 6C9412A66DA79F580D3F96DF8A4C0C8700A6F2EBF81469522C73B0888B933230 ====

REM GENRE “Hard Rock”
REM DATE 2003
REM DISCID 780D290A
REM COMMENT “ExactAudioCopy v1.0b3”
PERFORMER “Led Zeppelin”
TITLE “How The West Was Won (CD 1)”
FILE “How The West Was Won (CD 1).flac” WAVE
TRACK 01 AUDIO
TITLE “LA Drone (Long Beach Arena)”
PERFORMER “Led Zeppelin”
INDEX 01 00:00:00
TRACK 02 AUDIO
TITLE “Immigrant Song (Long Beach Arena)”
PERFORMER “Led Zeppelin”
INDEX 00 00:14:41
INDEX 01 00:14:42
TRACK 03 AUDIO
TITLE “Heartbreaker (Long Beach Arena)”
PERFORMER “Led Zeppelin”
INDEX 00 03:56:14
INDEX 01 03:56:15
TRACK 04 AUDIO
TITLE “Black Dog (LA Forum)”
PERFORMER “Led Zeppelin”
INDEX 00 11:20:24
INDEX 01 11:20:25
TRACK 05 AUDIO
TITLE “Over The Hills And Far Away (LA Forum)”
PERFORMER “Led Zeppelin”
INDEX 00 17:00:56
INDEX 01 17:00:57
TRACK 06 AUDIO
TITLE “Since I’ve Been Loving You (Long Beach Arena)”
PERFORMER “Led Zeppelin”
INDEX 00 22:08:29
INDEX 01 22:08:30
TRACK 07 AUDIO
TITLE “Stairway To Heaven (Long Beach Arena)”
PERFORMER “Led Zeppelin”
INDEX 00 30:10:01
INDEX 01 30:10:02
TRACK 08 AUDIO
TITLE “Going To California (Long Beach Arena)”
PERFORMER “Led Zeppelin”
INDEX 00 39:47:01
INDEX 01 39:47:02
TRACK 09 AUDIO
TITLE “That’s The Way (LA Forum)”
PERFORMER “Led Zeppelin”
INDEX 00 45:23:74
INDEX 01 45:24:00
TRACK 10 AUDIO
TITLE “Bron-Yr-Aur Stomp (Long Beach Arena)”
PERFORMER “Led Zeppelin”
INDEX 00 51:17:51
INDEX 01 51:17:52

REM GENRE Rock
REM DATE 1972
REM DISCID 2D0C7604
REM COMMENT “ExactAudioCopy v1.0b3”
PERFORMER “Led Zeppelin”
TITLE “How the West Was Won (CD 2)”
FILE “How the West Was Won (CD 2).flac” WAVE
TRACK 01 AUDIO
TITLE “Dazed and Confused (LA Forum)”
PERFORMER “Led Zeppelin”
INDEX 01 00:00:00
TRACK 02 AUDIO
TITLE “What Is and What Should Never Be (Long Beach Arena)”
PERFORMER “Led Zeppelin”
INDEX 00 25:25:16
INDEX 01 25:25:17
TRACK 03 AUDIO
TITLE “Dancing Days (Long Beach Arena)”
PERFORMER “Led Zeppelin”
INDEX 00 30:05:09
INDEX 01 30:05:10
TRACK 04 AUDIO
TITLE “Moby Dick (LA Forum)”
PERFORMER “Led Zeppelin”
INDEX 00 33:46:51
INDEX 01 33:46:52

REM GENRE Rock
REM DATE 2003
REM DISCID 39099404
REM COMMENT “ExactAudioCopy v1.0b3”
PERFORMER “Led Zeppelin”
TITLE “How The West Was Won (Disc 3)”
FILE “How The West Was Won (Disc 3).flac” WAVE
TRACK 01 AUDIO
TITLE “Whole Lotta Love”
PERFORMER “Led Zeppelin”
INDEX 01 00:00:00
TRACK 02 AUDIO
TITLE “Rock And Roll”
PERFORMER “Led Zeppelin”
INDEX 00 23:07:09
INDEX 01 23:07:10
TRACK 03 AUDIO
TITLE “The Ocean”
PERFORMER “Led Zeppelin”
INDEX 00 27:02:46
INDEX 01 27:02:47
TRACK 04 AUDIO
TITLE “Bring It On Home”
PERFORMER “Led Zeppelin”
INDEX 00 31:22:44
INDEX 01 31:22:45


Leave a Reply

Your email address will not be published. Required fields are marked *

This site uses Akismet to reduce spam. Learn how your comment data is processed.