Led Zeppelin – Houses Of The Holy (Remastered)




Artist: Led Zeppelin
Year: 1973/1993
Genre: Rock
Notes: Discogs
Add. Notes: Remastered
Cover incl.: Yes
Encoder: FLAC
Bitrate: ~900 kBit/s (44.1 kHz/16 Bit/s)
Log & Cue incl.: Yes
Size: 472 MB
Password: “slam” (without ” “)


All Downloads/Hosters are compatible

Download 1
KatFile.com
Turbobit.net
Rapidgator.net
Turbobit.net
Download 2
KatFile.com
Turbobit.net
Rapidgator.net
Turbobit.net

Tracklist:

1 - The Song Remains The Same - 
5:28
2 - The Rain Song - 7:39
3 - Over The Hills And Far Away - 
4:47
4 - The Crunge - 3:13
5 - Dancing Days - 3:41
6 - D'yer Mak'er - 4:22
7 - No Quarter - 6:59
8 - The Ocean - 4:30

EAC-Log, CUE-Sheed & NFO:

Click to open spoiler
Exact Audio Copy V1.0 beta 3 from 29. August 2011

EAC extraction logfile from 5. December 2013, 20:20

Led Zeppelin / Houses of the Holy

Used drive : Optiarc DVD RW AD-7263S Adapter: 2 ID: 0

Read mode : Secure
Utilize accurate stream : Yes
Defeat audio cache : Yes
Make use of C2 pointers : No

Read offset correction : 48
Overread into Lead-In and Lead-Out : No
Fill up missing offset samples with silence : Yes
Delete leading and trailing silent blocks : No
Null samples used in CRC calculations : Yes
Used interface : Native Win32 interface for Win NT & 2000

Used output format : User Defined Encoder
Selected bitrate : 768 kBit/s
Quality : High
Add ID3 tag : No
Command line compressor : G:\Program Files\Exact Audio Copy\FLAC\FLAC.EXE
Additional command line options : -V -8 -T “Date=%year%” -T “Genre=%genre%” %source%

TOC of the extracted CD

Track | Start | Length | Start sector | End sector
———————————————————
1 | 0:00.32 | 5:30.05 | 32 | 24786
2 | 5:30.37 | 7:38.73 | 24787 | 59209
3 | 13:09.35 | 4:50.15 | 59210 | 80974
4 | 17:59.50 | 3:17.20 | 80975 | 95769
5 | 21:16.70 | 3:43.05 | 95770 | 112499
6 | 25:00.00 | 4:22.50 | 112500 | 132199
7 | 29:22.50 | 7:00.45 | 132200 | 163744
8 | 36:23.20 | 4:31.20 | 163745 | 184089

Range status and errors

Selected range

Filename H:\MUSIC\Complete Studio Record (USA)\1973. Houses Of The Holy\Houses of the Holy.wav

Peak level 100.0 %
Extraction speed 3.9 X
Range quality 100.0 %
Test CRC C41E3B19
Copy CRC C41E3B19
Copy OK

No errors occurred

AccurateRip summary

Track 1 accurately ripped (confidence 73) [319F12A2] (AR v2)
Track 2 accurately ripped (confidence 74) [FB482227] (AR v2)
Track 3 accurately ripped (confidence 75) [01899714] (AR v2)
Track 4 accurately ripped (confidence 58) [7D7B1FB2] (AR v2)
Track 5 accurately ripped (confidence 76) [EA5C5EA7] (AR v2)
Track 6 accurately ripped (confidence 76) [CC7B5576] (AR v2)
Track 7 accurately ripped (confidence 74) [97DBAC21] (AR v2)
Track 8 accurately ripped (confidence 76) [536C981C] (AR v2)

All tracks accurately ripped

End of status report

—- CUETools DB Plugin V2.1.3

[CTDB TOCID: 9p862.iqB_RHGDlZF3JHVN2F7es-] found, Submit result: discs with pregaps not supported in this protocol version
[1cb4d046] (136/139) Differs in 0 samples @
[69101709] (001/139) No match
[f78e07e8] (001/139) No match
[6ab48549] (001/139) No match
You can use CUETools to repair this rip.

==== Log checksum 911F795DA8678B7C8D3197DB3B9EBA40FB39B4EEF16C5BA5BBDF7BC055D514E2 ====

REM GENRE Rock
REM DATE 1973
REM DISCID 61099608
REM COMMENT “ExactAudioCopy v1.0b3”
PERFORMER “Led Zeppelin”
TITLE “Houses of the Holy”
FILE “Houses of the Holy.flac” WAVE
TRACK 01 AUDIO
TITLE “The Song Remains the Same”
PERFORMER “Led Zeppelin”
INDEX 00 00:00:00
INDEX 01 00:00:32
TRACK 02 AUDIO
TITLE “The Rain Song”
PERFORMER “Led Zeppelin”
INDEX 01 05:30:37
TRACK 03 AUDIO
TITLE “Over the Hills and Far Away”
PERFORMER “Led Zeppelin”
INDEX 00 13:09:09
INDEX 01 13:09:35
TRACK 04 AUDIO
TITLE “The Crunge”
PERFORMER “Led Zeppelin”
INDEX 00 17:59:06
INDEX 01 17:59:50
TRACK 05 AUDIO
TITLE “Dancing Days”
PERFORMER “Led Zeppelin”
INDEX 00 21:15:03
INDEX 01 21:16:70
TRACK 06 AUDIO
TITLE “D’yer Mak’er”
PERFORMER “Led Zeppelin”
INDEX 00 24:58:50
INDEX 01 25:00:00
TRACK 07 AUDIO
TITLE “No Quarter”
PERFORMER “Led Zeppelin”
INDEX 00 29:22:36
INDEX 01 29:22:50
TRACK 08 AUDIO
TITLE “The Ocean”
PERFORMER “Led Zeppelin”
INDEX 00 36:22:32
INDEX 01 36:23:20


Leave a Reply

Your email address will not be published. Required fields are marked *

This site uses Akismet to reduce spam. Learn how your comment data is processed.