Led Zeppelin – Houses Of The Holy (Reissue)




Artist: Led Zeppelin
Year: 1973
Genre: Rock
Notes: Discogs
Add. Notes: Reissue
Cover incl.: Yes
Encoder: FLAC
Bitrate: ~800 kBit/s (44.1 kHz/16 Bit/s)
Log & Cue incl.: Yes
Size: 402,4 MB
Password: “slam” (without ” “)


All Downloads/Hosters are compatible

Download 1
KatFile.com
Turbobit.net
FileFactory.com
Rapidgator.net
Download 2
KatFile.com
Turbobit.net
FileFactory.com
Rapidgator.net

Tracklist:

1 The Song Remains The Same 5:24
2 The Rain Song 7:32
3 Over The Hills And Far Away 4:42
4 The Crunge 3:10
5 Dancing Days 3:40
6 D'yer Mak'er 4:19
7 No Quarter 6:57
8 The Ocean 4:28

EAC-Log, CUE-Sheed & NFO:

Click to open spoiler
Exact Audio Copy V0.99 prebeta 5 from 4. May 2009

EAC extraction logfile from 24. August 2013, 18:46

Led Zeppelin / Houses Of The Holy

Used drive : PLEXTOR DVDR PX-L890SA Adapter: 1 ID: 0

Read mode : Secure
Utilize accurate stream : Yes
Defeat audio cache : Yes
Make use of C2 pointers : No

Read offset correction : 6
Overread into Lead-In and Lead-Out : No
Fill up missing offset samples with silence : Yes
Delete leading and trailing silent blocks : No
Null samples used in CRC calculations : Yes
Used interface : Native Win32 interface for Win NT & 2000

Used output format : User Defined Encoder
Selected bitrate : 768 kBit/s
Quality : High
Add ID3 tag : No
Command line compressor : d:\Program Files\Exact Audio Copy\FLAC\FLAC.EXE
Additional command line options : -T “DATE=%y” -T “GENRE=%m” -8 -V %s

TOC of the extracted CD

Track | Start | Length | Start sector | End sector
———————————————————
1 | 0:01.00 | 5:30.02 | 75 | 24826
2 | 5:31.02 | 7:39.58 | 24827 | 59309
3 | 13:10.60 | 4:50.22 | 59310 | 81081
4 | 18:01.07 | 3:15.25 | 81082 | 95731
5 | 21:16.32 | 3:45.25 | 95732 | 112631
6 | 25:01.57 | 4:24.50 | 112632 | 132481
7 | 29:26.32 | 7:03.45 | 132482 | 164251
8 | 36:30.02 | 4:30.55 | 164252 | 184556

Range status and errors

Selected range

Filename H:\MUSIC\COLLECTION\Led Zeppelin\1973 Houses Of The Holy (Germany 250 014)\Led Zeppelin – Houses Of The Holy.wav

Peak level 92.7 %
Range quality 100.0 %
Test CRC A57DCBB0
Copy CRC A57DCBB0
Copy OK

No errors occurred

AccurateRip summary

Track 1 accurately ripped (confidence 132) [929C138A]
Track 2 accurately ripped (confidence 132) [27921039]
Track 3 accurately ripped (confidence 138) [929859E9]
Track 4 accurately ripped (confidence 136) [5C7F6B4C]
Track 5 accurately ripped (confidence 133) [9E99DB2C]
Track 6 accurately ripped (confidence 137) [1F19972F]
Track 7 accurately ripped (confidence 136) [4ED1D4FE]
Track 8 accurately ripped (confidence 128) [27E6D37A]

All tracks accurately ripped

End of status report

REM GENRE Rock
REM DATE 1973
REM DISCID 69099B08
REM COMMENT “ExactAudioCopy v0.99pb5”
PERFORMER “Led Zeppelin”
TITLE “Houses Of The Holy ”
FILE “Led Zeppelin – Houses Of The Holy.flac” WAVE
TRACK 01 AUDIO
TITLE “The Song Remains The Same”
PERFORMER “Led Zeppelin”
INDEX 00 00:00:00
INDEX 01 00:01:00
TRACK 02 AUDIO
TITLE “The Rain Song”
PERFORMER “Led Zeppelin”
INDEX 01 05:31:02
TRACK 03 AUDIO
TITLE “Over The Hills And Far Away”
PERFORMER “Led Zeppelin”
INDEX 01 13:10:60
TRACK 04 AUDIO
TITLE “The Crunge”
PERFORMER “Led Zeppelin”
INDEX 00 18:00:52
INDEX 01 18:01:07
TRACK 05 AUDIO
TITLE “Dancing Days”
PERFORMER “Led Zeppelin”
INDEX 00 21:15:32
INDEX 01 21:16:32
TRACK 06 AUDIO
TITLE “D’yer Mak’er”
PERFORMER “Led Zeppelin”
INDEX 00 25:00:27
INDEX 01 25:01:57
TRACK 07 AUDIO
TITLE “No Quarter”
PERFORMER “Led Zeppelin”
INDEX 00 29:24:65
INDEX 01 29:26:32
TRACK 08 AUDIO
TITLE “The Ocean”
PERFORMER “Led Zeppelin”
INDEX 01 36:30:02


0

Publication author

offline 11 hours

Chaos

3
Comments: 3Publics: 3189Registration: 02-02-2019
Spread the Download

Leave a Reply

Your email address will not be published. Required fields are marked *

Enter the text from the image below
 

This site uses Akismet to reduce spam. Learn how your comment data is processed.