Led Zeppelin – Houses Of The Holy (Japanese Edition)




[Total: 0    Average: 0/5]

Artist: Led Zeppelin
Year: 1973/1986
Genre: Rock
Notes: Discogs
Add. Notes: Japanese Edition
Cover incl.: Yes
Encoder: FLAC
Bitrate: ~800 kBit/s (44.1 kHz/16 Bit/s)
Log & Cue incl.: Yes
Size: 475 MB
Password: “slam” (without ” “)


All Downloads/Hosters are compatible

Download 1
KatFile.com
Turbobit.net
FileFactory.com
Rapidgator.net
Download 2
KatFile.com
Turbobit.net
FileFactory.com
Rapidgator.net

Tracklist:

1 - The Song Remains The Same - 
5:24
2 - The Rain Song - 7:32
3 - Over The Hills And Far Away - 
4:42
4 - The Crunge - 3:10
5 - Dancing Days - 3:40
6 - D'yer Mak'er - 4:19
7 - No Quarter - 6:57
8 - The Ocean - 4:28

EAC-Log, CUE-Sheed & NFO:

Click to open spoiler
Exact Audio Copy V0.99 prebeta 5 from 4. May 2009

EAC extraction logfile from 26. September 2013, 19:20

Led Zeppelin / Houses of The Holy

Used drive : PLEXTOR DVDR PX-L890SA Adapter: 1 ID: 0

Read mode : Secure
Utilize accurate stream : Yes
Defeat audio cache : Yes
Make use of C2 pointers : No

Read offset correction : 6
Overread into Lead-In and Lead-Out : No
Fill up missing offset samples with silence : Yes
Delete leading and trailing silent blocks : No
Null samples used in CRC calculations : Yes
Used interface : Native Win32 interface for Win NT & 2000

Used output format : User Defined Encoder
Selected bitrate : 768 kBit/s
Quality : High
Add ID3 tag : No
Command line compressor : d:\Program Files\Exact Audio Copy\FLAC\FLAC.EXE
Additional command line options : -T “DATE=%y” -T “GENRE=%m” -8 -V %s

TOC of the extracted CD

Track | Start | Length | Start sector | End sector
———————————————————
1 | 0:00.00 | 5:30.00 | 0 | 24749
2 | 5:30.00 | 7:39.52 | 24750 | 59226
3 | 13:09.52 | 4:50.23 | 59227 | 80999
4 | 18:00.00 | 3:15.25 | 81000 | 95649
5 | 21:15.25 | 3:45.25 | 95650 | 112549
6 | 25:00.50 | 4:24.50 | 112550 | 132399
7 | 29:25.25 | 7:03.45 | 132400 | 164169
8 | 36:28.70 | 4:32.05 | 164170 | 184574

Range status and errors

Selected range

Filename H:\MUSIC\COLLECTION\Led Zeppelin\1973 Houses of The Holy (Japan 32XD-154)\Led Zeppelin – Houses of The Holy.wav

Peak level 92.7 %
Range quality 100.0 %
Test CRC 89F49FF9
Copy CRC 89F49FF9
Copy OK

No errors occurred

AccurateRip summary

Track 1 accurately ripped (confidence 5) [0425BCAB]
Track 2 accurately ripped (confidence 4) [31AE6914]
Track 3 accurately ripped (confidence 4) [F97C0C19]
Track 4 accurately ripped (confidence 4) [6DFB5534]
Track 5 accurately ripped (confidence 4) [7C4DB178]
Track 6 accurately ripped (confidence 4) [E2A826BF]
Track 7 accurately ripped (confidence 4) [122D0F98]
Track 8 accurately ripped (confidence 4) [21F38CF0]

All tracks accurately ripped

End of status report

REM GENRE “Hard Rock”
REM DATE 1973
REM DISCID 60099D08
REM COMMENT “ExactAudioCopy v0.99pb5”
PERFORMER “Led Zeppelin”
TITLE “Houses of The Holy”
FILE “Led Zeppelin – Houses of The Holy.flac” WAVE
TRACK 01 AUDIO
TITLE “The Song Remains The Same”
PERFORMER “Led Zeppelin”
INDEX 01 00:00:00
TRACK 02 AUDIO
TITLE “The Rain Song”
PERFORMER “Led Zeppelin”
INDEX 01 05:30:00
TRACK 03 AUDIO
TITLE “Over The Hills and Far Away”
PERFORMER “Led Zeppelin”
INDEX 01 13:09:52
TRACK 04 AUDIO
TITLE “The Crunge”
PERFORMER “Led Zeppelin”
INDEX 01 18:00:00
TRACK 05 AUDIO
TITLE “Dancing Days”
PERFORMER “Led Zeppelin”
INDEX 01 21:15:25
TRACK 06 AUDIO
TITLE “D’yer Mak’er”
PERFORMER “Led Zeppelin”
INDEX 01 25:00:50
TRACK 07 AUDIO
TITLE “No Quarter”
PERFORMER “Led Zeppelin”
INDEX 01 29:25:25
TRACK 08 AUDIO
TITLE “The Ocean”
PERFORMER “Led Zeppelin”
INDEX 01 36:28:70


Spread the Download

Leave a Reply

Your email address will not be published. Required fields are marked *

Enter the text from the image below
 

This site uses Akismet to reduce spam. Learn how your comment data is processed.