Led Zeppelin – Hard Zepp 1969-1976




Artist: Led Zeppelin
Year: 2012
Genre: Rock
Notes: Discogs
Add. Notes:
Cover incl.: Yes
Encoder: FLAC
Bitrate: ~1000 kBit/s (44.1 kHz/16 Bit/s)
Log & Cue incl.: Yes
Size: 591,96 MB
Password: “slam” (without ” “)


All Downloads/Hosters are compatible

Download 1
Turbobit.net
Rapidgator.net
UploadByte.com
UploadEver.com
JustUpload.io
Download 2
Turbobit.net
Rapidgator.net
UploadByte.com
UploadEver.com
JustUpload.io
Download 3
Turbobit.net
Rapidgator.net
UploadByte.com
UploadEver.com
JustUpload.io

Tracklist:

01. Communication Breakdown
02. Whole Lotta Love
03. Heartbreaker
04. Living Loving Maid (She's Just A Woman)
05. Ramble On
06. Immigrant Song
07. Out On The Tiles
08. Stairway To Heaven
09. The Ocean
10. The Rover
11. Trampled Under Foot
12. Kashmir
13. The Wanton Song
14. Nobody's Fault But Mine
15. Achilles Last Stand

EAC-Log, CUE-Sheed & NFO:

Click to open spoiler
Exact Audio Copy V0.99 prebeta 5 from 4. May 2009

EAC extraction logfile from 11. August 2012, 18:52

Led Zeppelin / Hard Zepp

Used drive : HL-DT-STDVDRAM GT10N Adapter: 1 ID: 0

Read mode : Secure
Utilize accurate stream : Yes
Defeat audio cache : Yes
Make use of C2 pointers : No

Read offset correction : 102
Overread into Lead-In and Lead-Out : No
Fill up missing offset samples with silence : Yes
Delete leading and trailing silent blocks : No
Null samples used in CRC calculations : Yes
Used interface : Native Win32 interface for Win NT & 2000
Gap handling : Appended to previous track

Used output format : Internal WAV Routines
Sample format : 44.100 Hz; 16 Bit; Stereo

TOC of the extracted CD

Track | Start | Length | Start sector | End sector
———————————————————
1 | 0:00.00 | 2:28.22 | 0 | 11121
2 | 2:28.22 | 5:34.47 | 11122 | 36218
3 | 8:02.69 | 4:14.15 | 36219 | 55283
4 | 12:17.09 | 2:39.10 | 55284 | 67218
5 | 14:56.19 | 4:25.18 | 67219 | 87111
6 | 19:21.37 | 2:25.69 | 87112 | 98055
7 | 21:47.31 | 4:03.50 | 98056 | 116330
8 | 25:51.06 | 8:01.30 | 116331 | 152435
9 | 33:52.36 | 4:29.19 | 152436 | 172629
10 | 38:21.55 | 5:35.24 | 172630 | 197778
11 | 43:57.04 | 5:36.39 | 197779 | 223017
12 | 49:33.43 | 8:28.13 | 223018 | 261130
13 | 58:01.56 | 4:06.42 | 261131 | 279622
14 | 62:08.23 | 6:13.65 | 279623 | 307662
15 | 68:22.13 | 10:22.46 | 307663 | 354358

Track 1

Filename C:\REL\Led Zeppelin – 2012 – Hard Zepp\01 – Communication Breakdown.wav

Pre-gap length 0:00:02.00

Peak level 98.8 %
Track quality 100.0 %
Test CRC 78414A1C
Copy CRC 78414A1C
Copy OK

Track 2

Filename C:\REL\Led Zeppelin – 2012 – Hard Zepp\02 – Whole Lotta Love.wav

Pre-gap length 0:00:00.37

Peak level 98.8 %
Track quality 100.0 %
Test CRC 93A7946A
Copy CRC 93A7946A
Copy OK

Track 3

Filename C:\REL\Led Zeppelin – 2012 – Hard Zepp\03 – Heartbreaker.wav

Pre-gap length 0:00:00.42

Peak level 98.8 %
Track quality 100.0 %
Test CRC 03EC46FA
Copy CRC 03EC46FA
Copy OK

Track 4

Filename C:\REL\Led Zeppelin – 2012 – Hard Zepp\04 – Living Loving Maid (She’s Just A Woman).wav

Pre-gap length 0:00:00.44

Peak level 98.8 %
Track quality 100.0 %
Test CRC 7B074D62
Copy CRC 7B074D62
Copy OK

Track 5

Filename C:\REL\Led Zeppelin – 2012 – Hard Zepp\05 – Ramble On.wav

Peak level 98.8 %
Track quality 100.0 %
Test CRC FED91A46
Copy CRC FED91A46
Copy OK

Track 6

Filename C:\REL\Led Zeppelin – 2012 – Hard Zepp\06 – Immigrant Song.wav

Pre-gap length 0:00:00.37

Peak level 98.8 %
Track quality 100.0 %
Test CRC 909A1D46
Copy CRC 909A1D46
Copy OK

Track 7

Filename C:\REL\Led Zeppelin – 2012 – Hard Zepp\07 – Out On The Tiles.wav

Pre-gap length 0:00:00.45

Peak level 98.8 %
Track quality 100.0 %
Test CRC E49AD3E4
Copy CRC E49AD3E4
Copy OK

Track 8

Filename C:\REL\Led Zeppelin – 2012 – Hard Zepp\08 – Stairway To Heaven.wav

Pre-gap length 0:00:00.39

Peak level 98.8 %
Track quality 100.0 %
Test CRC D89E8E87
Copy CRC D89E8E87
Copy OK

Track 9

Filename C:\REL\Led Zeppelin – 2012 – Hard Zepp\09 – The Ocean.wav

Pre-gap length 0:00:00.36

Peak level 98.8 %
Track quality 100.0 %
Test CRC D923809B
Copy CRC D923809B
Copy OK

Track 10

Filename C:\REL\Led Zeppelin – 2012 – Hard Zepp\10 – The Rover.wav

Pre-gap length 0:00:00.37

Peak level 98.8 %
Track quality 100.0 %
Test CRC 525CA626
Copy CRC 525CA626
Copy OK

Track 11

Filename C:\REL\Led Zeppelin – 2012 – Hard Zepp\11 – Trampled Under Foot.wav

Pre-gap length 0:00:00.41

Peak level 98.8 %
Track quality 100.0 %
Test CRC 3D57ADB2
Copy CRC 3D57ADB2
Copy OK

Track 12

Filename C:\REL\Led Zeppelin – 2012 – Hard Zepp\12 – Kashmir.wav

Pre-gap length 0:00:00.40

Peak level 98.8 %
Track quality 100.0 %
Test CRC 13E84DEF
Copy CRC 13E84DEF
Copy OK

Track 13

Filename C:\REL\Led Zeppelin – 2012 – Hard Zepp\13 – The Wanton Song.wav

Pre-gap length 0:00:00.38

Peak level 98.8 %
Track quality 100.0 %
Test CRC 03B46199
Copy CRC 03B46199
Copy OK

Track 14

Filename C:\REL\Led Zeppelin – 2012 – Hard Zepp\14 – Nobody’s Fault But Mine.wav

Pre-gap length 0:00:00.38

Peak level 98.8 %
Track quality 100.0 %
Test CRC 551E9093
Copy CRC 551E9093
Copy OK

Track 15

Filename C:\REL\Led Zeppelin – 2012 – Hard Zepp\15 – Achilles Last Stand.wav

Pre-gap length 0:00:00.33

Peak level 98.8 %
Track quality 100.0 %
Test CRC F6B6E542
Copy CRC F6B6E542
Copy OK

No errors occurred

End of status report

REM GENRE “Hard Rock”
REM DATE 2012
REM DISCID CE12740F
REM COMMENT “ExactAudioCopy v0.99pb5”
PERFORMER “Led Zeppelin”
TITLE “Hard Zepp”
FILE “01 – Communication Breakdown.flac” WAVE
TRACK 01 AUDIO
TITLE “Communication Breakdown”
PERFORMER “Led Zeppelin”
INDEX 01 00:00:00
TRACK 02 AUDIO
TITLE “Whole Lotta Love”
PERFORMER “Led Zeppelin”
INDEX 00 02:27:60
FILE “02 – Whole Lotta Love.flac” WAVE
INDEX 01 00:00:00
TRACK 03 AUDIO
TITLE “Heartbreaker”
PERFORMER “Led Zeppelin”
INDEX 00 05:34:05
FILE “03 – Heartbreaker.flac” WAVE
INDEX 01 00:00:00
TRACK 04 AUDIO
TITLE “Living Loving Maid (She’s Just A Woman)”
PERFORMER “Led Zeppelin”
INDEX 00 04:13:46
FILE “04 – Living Loving Maid (She’s Just A Woman).flac” WAVE
INDEX 01 00:00:00
FILE “05 – Ramble On.flac” WAVE
TRACK 05 AUDIO
TITLE “Ramble On”
PERFORMER “Led Zeppelin”
INDEX 01 00:00:00
TRACK 06 AUDIO
TITLE “Immigrant Song”
PERFORMER “Led Zeppelin”
INDEX 00 04:24:56
FILE “06 – Immigrant Song.flac” WAVE
INDEX 01 00:00:00
TRACK 07 AUDIO
TITLE “Out On The Tiles”
PERFORMER “Led Zeppelin”
INDEX 00 02:25:24
FILE “07 – Out On The Tiles.flac” WAVE
INDEX 01 00:00:00
TRACK 08 AUDIO
TITLE “Stairway To Heaven”
PERFORMER “Led Zeppelin”
INDEX 00 04:03:11
FILE “08 – Stairway To Heaven.flac” WAVE
INDEX 01 00:00:00
TRACK 09 AUDIO
TITLE “The Ocean”
PERFORMER “Led Zeppelin”
INDEX 00 08:00:69
FILE “09 – The Ocean.flac” WAVE
INDEX 01 00:00:00
TRACK 10 AUDIO
TITLE “The Rover”
PERFORMER “Led Zeppelin”
INDEX 00 04:28:57
FILE “10 – The Rover.flac” WAVE
INDEX 01 00:00:00
TRACK 11 AUDIO
TITLE “Trampled Under Foot”
PERFORMER “Led Zeppelin”
INDEX 00 05:34:58
FILE “11 – Trampled Under Foot.flac” WAVE
INDEX 01 00:00:00
TRACK 12 AUDIO
TITLE “Kashmir”
PERFORMER “Led Zeppelin”
INDEX 00 05:35:74
FILE “12 – Kashmir.flac” WAVE
INDEX 01 00:00:00
TRACK 13 AUDIO
TITLE “The Wanton Song”
PERFORMER “Led Zeppelin”
INDEX 00 08:27:50
FILE “13 – The Wanton Song.flac” WAVE
INDEX 01 00:00:00
TRACK 14 AUDIO
TITLE “Nobody’s Fault But Mine”
PERFORMER “Led Zeppelin”
INDEX 00 04:06:04
FILE “14 – Nobody’s Fault But Mine.flac” WAVE
INDEX 01 00:00:00
TRACK 15 AUDIO
TITLE “Achilles Last Stand”
PERFORMER “Led Zeppelin”
INDEX 00 06:13:32
FILE “15 – Achilles Last Stand.flac” WAVE
INDEX 01 00:00:00

Leave a Reply

Your email address will not be published. Required fields are marked *

This site uses Akismet to reduce spam. Learn how your comment data is processed.