Led Zeppelin – Coda (Remastered)




[Total: 0    Average: 0/5]

Artist: Led Zeppelin
Year: 1982/1993
Genre: Rock
Notes: Discogs
Add. Notes: Remastered
Cover incl.: Yes
Encoder: FLAC
Bitrate: ~800 kBit/s (44.1 kHz/16 Bit/s)
Log & Cue incl.: Yes
Size: 519 MB
Password: “slam” (without ” “)


All Downloads/Hosters are compatible

Download 1
Share-online.biz
KatFile.com
Rapidgator.net
Mexa.sh
Download 2
Share-online.biz
KatFile.com
Rapidgator.net
Mexa.sh

Tracklist:

1 - We're Gonna Groove - 2:37
2 - Poor Tom - 3:02
3 - I Can't Quit You Baby - 4:16
4 - Walter's Walk - 4:31
5 - Ozone Baby - 3:35
6 - Darlene - 4:37
7 - Bonzo's Montreux - 4:18
8 - Wearing And Tearing - 5:28
Bonus Tracks
9 - Baby Come On Home - 4:29
10 - Travelling Riverside Blues - 5:09
11 - White Summer / Black Mountain 
Side - 8:01
12 - Hey Hey What Can I Do - 3:56

EAC-Log, CUE-Sheed & NFO:

Click to open spoiler
Exact Audio Copy V1.0 beta 3 from 29. August 2011

EAC extraction logfile from 6. December 2013, 22:13

Led Zeppelin / Coda

Used drive : PLEXTOR DVDR PX-L890SA Adapter: 1 ID: 0

Read mode : Secure
Utilize accurate stream : Yes
Defeat audio cache : Yes
Make use of C2 pointers : No

Read offset correction : 6
Overread into Lead-In and Lead-Out : No
Fill up missing offset samples with silence : Yes
Delete leading and trailing silent blocks : No
Null samples used in CRC calculations : Yes
Used interface : Native Win32 interface for Win NT & 2000

Used output format : User Defined Encoder
Selected bitrate : 768 kBit/s
Quality : High
Add ID3 tag : No
Command line compressor : G:\Program Files\Exact Audio Copy\FLAC\FLAC.EXE
Additional command line options : -V -8 -T “Date=%year%” -T “Genre=%genre%” %source%

TOC of the extracted CD

Track | Start | Length | Start sector | End sector
———————————————————
1 | 0:00.32 | 2:37.63 | 32 | 11869
2 | 2:38.20 | 3:02.20 | 11870 | 25539
3 | 5:40.40 | 4:18.10 | 25540 | 44899
4 | 9:58.50 | 4:30.55 | 44900 | 65204
5 | 14:29.30 | 3:35.60 | 65205 | 81389
6 | 18:05.15 | 5:07.17 | 81390 | 104431
7 | 23:12.32 | 4:18.50 | 104432 | 123831
8 | 27:31.07 | 5:31.03 | 123832 | 148659
9 | 33:02.10 | 4:29.20 | 148660 | 168854
10 | 37:31.30 | 5:11.32 | 168855 | 192211
11 | 42:42.62 | 8:03.15 | 192212 | 228451
12 | 50:46.02 | 3:56.13 | 228452 | 246164

Range status and errors

Selected range

Filename H:\MUSIC\Complete Studio Record (USA)\1982. Coda\Coda.wav

Peak level 100.0 %
Extraction speed 6.2 X
Range quality 100.0 %
Test CRC E0753A90
Copy CRC E0753A90
Copy OK

No errors occurred

AccurateRip summary

Track 1 accurately ripped (confidence 70) [C256E96D] (AR v2)
Track 2 accurately ripped (confidence 71) [36E78B7D] (AR v2)
Track 3 accurately ripped (confidence 71) [CF4406E0] (AR v2)
Track 4 accurately ripped (confidence 72) [F116BF63] (AR v2)
Track 5 accurately ripped (confidence 71) [BDC2B453] (AR v2)
Track 6 accurately ripped (confidence 71) [13AA0920] (AR v2)
Track 7 accurately ripped (confidence 71) [493E6D2A] (AR v2)
Track 8 accurately ripped (confidence 70) [7BA9F30C] (AR v2)
Track 9 accurately ripped (confidence 72) [B7A3A8A5] (AR v2)
Track 10 accurately ripped (confidence 71) [E70D2CE7] (AR v2)
Track 11 accurately ripped (confidence 70) [38E5C651] (AR v2)
Track 12 accurately ripped (confidence 67) [43D791AB] (AR v2)

All tracks accurately ripped

End of status report

—- CUETools DB Plugin V2.1.3

[CTDB TOCID: QQo5V2uVyMQv4jao3.R8Vl.HBEE-] found, Submit result: discs with pregaps not supported in this protocol version
[6c2111cb] (382/387) Differs in 0 samples @
[0b1aa2d0] (004/387) Differs in 2 samples @54:41:72-54:41:74
[9f9e13ac] (001/387) No match
You can use CUETools to repair this rip.

==== Log checksum 9BCFC92693CD10C863127FF53ABB20A0BD626F5CB05C027C3F330231A583E056 ====

REM GENRE Rock
REM DATE 1982
REM DISCID 9A0CD20C
REM COMMENT “ExactAudioCopy v1.0b3”
PERFORMER “Led Zeppelin”
TITLE “Coda”
FILE “Coda.flac” WAVE
TRACK 01 AUDIO
TITLE “We’re Gonna Groove”
PERFORMER “Led Zeppelin”
INDEX 00 00:00:00
INDEX 01 00:00:32
TRACK 02 AUDIO
TITLE “Poor Tom”
PERFORMER “Led Zeppelin”
INDEX 01 02:38:20
TRACK 03 AUDIO
TITLE “I Can’t Quit You Baby”
PERFORMER “Led Zeppelin”
INDEX 00 05:40:27
INDEX 01 05:40:40
TRACK 04 AUDIO
TITLE “Walter’s Walk”
PERFORMER “Led Zeppelin”
INDEX 01 09:58:50
TRACK 05 AUDIO
TITLE “Ozone Baby”
PERFORMER “Led Zeppelin”
INDEX 01 14:29:30
TRACK 06 AUDIO
TITLE “Darlene”
PERFORMER “Led Zeppelin”
INDEX 01 18:05:15
TRACK 07 AUDIO
TITLE “Bonzo’s Montreux”
PERFORMER “Led Zeppelin”
INDEX 01 23:12:32
TRACK 08 AUDIO
TITLE “Wearing And Tearing”
PERFORMER “Led Zeppelin”
INDEX 00 27:30:57
INDEX 01 27:31:07
TRACK 09 AUDIO
TITLE “Baby Come On Home – Bonus Track”
PERFORMER “Led Zeppelin”
INDEX 01 33:02:10
TRACK 10 AUDIO
TITLE “Travelling Riverside Blues – Bonus Track”
PERFORMER “Led Zeppelin”
INDEX 00 37:31:16
INDEX 01 37:31:30
TRACK 11 AUDIO
TITLE “White Summer – Black Mountain Side – Bonus Track”
PERFORMER “Led Zeppelin”
INDEX 00 42:40:70
INDEX 01 42:42:62
TRACK 12 AUDIO
TITLE “Hey Hey What Can I Do – Bonus Track”
PERFORMER “Led Zeppelin”
INDEX 00 50:44:48
INDEX 01 50:46:02


Spread the Download

Leave a Reply

Your email address will not be published. Required fields are marked *

Enter the text from the image below
 

This site uses Akismet to reduce spam. Learn how your comment data is processed.