Led Zeppelin – Coda (Remastered Japanese Edition)




No Cover available

Artist: Led Zeppelin
Year: 1982/2012
Genre: Rock
Notes: Discogs
Add. Notes: Remastered Japanese Edition
Watch Songs on: YouTube
Cover incl.: Yes
Encoder: FLAC
Bitrate: ~1000 kBit/s (44.1 kHz/16 Bit/s)
Log & Cue incl.: Yes/Yes
Size: 423,3 MB
Password: “slam” (without ” “)


All Downloads/Hosters are compatible

Download 1
KatFile.com
Turbobit.net
Rapidgator.net
FileFactory.com
Download 2
KatFile.com
Turbobit.net
Rapidgator.net
FileFactory.com

Tracklist:

1 - We're Gonna Groove - 2:37
2 - Poor Tom - 3:02
3 - I Can't Quit You Baby - 4:16
4 - Walter's Walk - 4:31
5 - Ozone Baby - 3:35
6 - Darlene - 4:37
7 - Bonzo's Montreux - 4:18
8 - Wearing And Tearing - 5:28

EAC-Log, CUE-Sheed & NFO:

Click to open spoiler
Exact Audio Copy V1.0 beta 3 from 29. August 2011

EAC extraction logfile from 15. December 2012, 17:29

Led Zeppelin / Coda

Used drive : MATSHITADVD-RAM UJ-850S Adapter: 1 ID: 0

Read mode : Secure
Utilize accurate stream : Yes
Defeat audio cache : Yes
Make use of C2 pointers : No

Read offset correction : 102
Overread into Lead-In and Lead-Out : No
Fill up missing offset samples with silence : Yes
Delete leading and trailing silent blocks : No
Null samples used in CRC calculations : Yes
Used interface : Native Win32 interface for Win NT & 2000

Used output format : User Defined Encoder
Selected bitrate : 128 kBit/s
Quality : High
Add ID3 tag : No
Command line compressor : C:\Program Files\Exact Audio Copy\Flac\flac.exe
Additional command line options : -V -8 -T “Date=%year%” -T “Genre=%genre%” %source%

TOC of the extracted CD

Track | Start | Length | Start sector | End sector
———————————————————
1 | 0:00.00 | 2:38.18 | 0 | 11867
2 | 2:38.18 | 3:02.07 | 11868 | 25524
3 | 5:40.25 | 4:18.05 | 25525 | 44879
4 | 9:58.30 | 4:31.00 | 44880 | 65204
5 | 14:29.30 | 3:35.65 | 65205 | 81394
6 | 18:05.20 | 5:07.13 | 81395 | 104432
7 | 23:12.33 | 4:18.37 | 104433 | 123819
8 | 27:30.70 | 5:29.70 | 123820 | 148564

Range status and errors

Selected range

Filename C:\Users\ALIK\Desktop\music\2012. 10 LIMITED CELEBRATION DAY VERSION CD SET-JAPAN CD AP50\Led Zeppelin – Coda\Led Zeppelin – Coda.wav

Peak level 100.0 %
Extraction speed 2.1 X
Range quality 100.0 %
Test CRC 09D76851
Copy CRC 09D76851
Copy OK

No errors occurred

AccurateRip summary

Track 1 not present in database
Track 2 not present in database
Track 3 not present in database
Track 4 not present in database
Track 5 not present in database
Track 6 not present in database
Track 7 not present in database
Track 8 not present in database

None of the tracks are present in the AccurateRip database

End of status report

—- CUETools DB Plugin V2.1.3

[CTDB TOCID: a0vijQORXnfOKJaBrdpXbjEG350-] found, Submit result: a0vijQORXnfOKJaBrdpXbjEG350- has been confirmed
[d96af1e7] (12/12) Accurately ripped

==== Log checksum CB76DBE813199938890B20BEA56B86115F3F0450A9DBAB7CC6AA3A459C473123 ====

REM GENRE “Hard Rock”
REM DATE 1982
REM DISCID 5707BC08
REM COMMENT “ExactAudioCopy v1.0b3”
CATALOG 4943674055883
PERFORMER “Led Zeppelin”
TITLE “Coda”
FILE “Led Zeppelin – Coda.flac” WAVE
TRACK 01 AUDIO
TITLE “We’re Gonna Groove”
PERFORMER “Led Zeppelin”
ISRC USAT20000586
INDEX 01 00:00:00
TRACK 02 AUDIO
TITLE “Poor Tom”
PERFORMER “Led Zeppelin”
ISRC USAT29900633
INDEX 01 02:38:18
TRACK 03 AUDIO
TITLE “I Can’t Quit You Baby”
PERFORMER “Led Zeppelin”
ISRC USAT29900541
INDEX 01 05:40:25
TRACK 04 AUDIO
TITLE “Walter’s Walk”
PERFORMER “Led Zeppelin”
ISRC USAT20000599
INDEX 01 09:58:30
TRACK 05 AUDIO
TITLE “Ozone Baby”
PERFORMER “Led Zeppelin”
ISRC USAT29900630
INDEX 01 14:29:30
TRACK 06 AUDIO
TITLE “Darlene”
PERFORMER “Led Zeppelin”
ISRC USAT20000600
INDEX 01 18:05:20
TRACK 07 AUDIO
TITLE “Bonzo’s Montreux”
PERFORMER “Led Zeppelin”
ISRC USAT20000609
INDEX 01 23:12:33
TRACK 08 AUDIO
TITLE “Wearing And Tearing”
PERFORMER “Led Zeppelin”
ISRC USAT29900632
INDEX 01 27:30:70


Leave a Reply

Your email address will not be published. Required fields are marked *

Enter the text from the image below
 

This site uses Akismet to reduce spam. Learn how your comment data is processed.