Led Zeppelin – Coda (Remastered)




Artist: Led Zeppelin
Year: 1982
Genre: Rock
Notes: Discogs
Add. Notes: Remastered
Cover incl.: Yes
Encoder: FLAC
Bitrate: ~1000 kBit/s (44.1 kHz/16 Bit/s)
Log & Cue incl.: Yes/Yes
Size: 333,9 MB
Password: “slam” (without ” “)


All Downloads/Hosters are compatible

Download 1
KatFile.com
Turbobit.net
FileFactory.com
Rapidgator.net
Download 2
KatFile.com
Turbobit.net
FileFactory.com
Rapidgator.net

Tracklist:

1 We're Gonna Groove 2:37
2 Poor Tom 3:02
3 I Can't Quit You Baby 4:16
4 Walter's Walk 4:31
5 Ozone Baby 3:35
6 Darlene 4:37
7 Bonzo's Montreux 4:18
8 Wearing And Tearing 5:28

EAC-Log, CUE-Sheed & NFO:

Click to open spoiler
Exact Audio Copy V0.99 prebeta 5 from 4. May 2009

EAC extraction logfile from 3. August 2013, 18:27

Led Zeppelin / Coda

Used drive : PLEXTOR DVDR PX-L890SA Adapter: 1 ID: 0

Read mode : Secure
Utilize accurate stream : Yes
Defeat audio cache : Yes
Make use of C2 pointers : No

Read offset correction : 6
Overread into Lead-In and Lead-Out : No
Fill up missing offset samples with silence : Yes
Delete leading and trailing silent blocks : No
Null samples used in CRC calculations : Yes
Used interface : Native Win32 interface for Win NT & 2000

Used output format : User Defined Encoder
Selected bitrate : 768 kBit/s
Quality : High
Add ID3 tag : No
Command line compressor : d:\Program Files\Exact Audio Copy\FLAC\FLAC.EXE
Additional command line options : -T “DATE=%y” -T “GENRE=%m” -8 -V %s

TOC of the extracted CD

Track | Start | Length | Start sector | End sector
———————————————————
1 | 0:00.00 | 2:37.47 | 0 | 11821
2 | 2:37.47 | 3:02.30 | 11822 | 25501
3 | 5:40.02 | 4:18.05 | 25502 | 44856
4 | 9:58.07 | 4:30.53 | 44857 | 65159
5 | 14:28.60 | 3:35.65 | 65160 | 81349
6 | 18:04.50 | 5:07.12 | 81350 | 104386
7 | 23:11.62 | 4:18.45 | 104387 | 123781
8 | 27:30.32 | 5:31.23 | 123782 | 148629

Range status and errors

Selected range

Filename H:\MUSIC\COLLECTION\Led Zeppelin\Remaster 2004\1982 Coda\Led Zeppelin – Coda.wav

Peak level 100.0 %
Range quality 99.9 %
Test CRC 154EF4E7
Copy CRC 154EF4E7
Copy OK

No errors occurred

AccurateRip summary

Track 1 accurately ripped (confidence 97) [CBED6EB5]
Track 2 accurately ripped (confidence 98) [1F78EE84]
Track 3 accurately ripped (confidence 98) [A46B04E7]
Track 4 accurately ripped (confidence 97) [A33D083C]
Track 5 accurately ripped (confidence 96) [02F81972]
Track 6 accurately ripped (confidence 98) [DFF56D5B]
Track 7 accurately ripped (confidence 96) [17DE5E76]
Track 8 accurately ripped (confidence 89) [05D12072]

All tracks accurately ripped

End of status report

REM GENRE Rock
REM DATE 1982
REM DISCID 5C07BD08
REM COMMENT “ExactAudioCopy v0.99pb5”
PERFORMER “Led Zeppelin”
TITLE “Coda”
FILE “Led Zeppelin – Coda.flac” WAVE
TRACK 01 AUDIO
TITLE “We’re Gonna Groove”
PERFORMER “Led Zeppelin”
INDEX 01 00:00:00
TRACK 02 AUDIO
TITLE “Poor Tom”
PERFORMER “Led Zeppelin”
INDEX 01 02:37:47
TRACK 03 AUDIO
TITLE “I Can’t Quit You Baby”
PERFORMER “Led Zeppelin”
INDEX 00 05:39:67
INDEX 01 05:40:02
TRACK 04 AUDIO
TITLE “Walter’s Walk”
PERFORMER “Led Zeppelin”
INDEX 01 09:58:07
TRACK 05 AUDIO
TITLE “Ozone Baby”
PERFORMER “Led Zeppelin”
INDEX 01 14:28:60
TRACK 06 AUDIO
TITLE “Darlene”
PERFORMER “Led Zeppelin”
INDEX 01 18:04:50
TRACK 07 AUDIO
TITLE “Bonzo’s Montreux”
PERFORMER “Led Zeppelin”
INDEX 01 23:11:62
TRACK 08 AUDIO
TITLE “Wearing And Tearing”
PERFORMER “Led Zeppelin”
INDEX 00 27:30:10
INDEX 01 27:30:32


Leave a Reply

Your email address will not be published. Required fields are marked *

Enter the text from the image below
 

This site uses Akismet to reduce spam. Learn how your comment data is processed.