Led Zeppelin – Coda (Japanese Edition)




Artist: Led Zeppelin
Year: 1982/1988
Genre: Rock
Notes: Discogs
Add. Notes: Japanese Edition
Cover incl.: Yes
Encoder: FLAC
Bitrate: ~900 kBit/s (44.1 kHz/16 Bit/s)
Log & Cue incl.: Yes
Size: 496 MB
Password: “slam” (without ” “)


All Downloads/Hosters are compatible

Download 1
KatFile.com
Rapidgator.net
Turbobit.net
FileFactory.com
Download 2
KatFile.com
Rapidgator.net
Turbobit.net
FileFactory.com

Tracklist:

1 - We're Gonna Groove - 2:37
2 - Poor Tom - 3:02
3 - I Can't Quit You Baby - 4:16
4 - Walter's Walk - 4:31
5 - Ozone Baby - 3:35
6 - Darlene - 4:37
7 - Bonzo's Montreux - 4:18
8 - Wearing And Tearing - 5:28

EAC-Log, CUE-Sheed & NFO:

Click to open spoiler
Exact Audio Copy V0.99 prebeta 5 from 4. May 2009

EAC extraction logfile from 27. August 2013, 20:42

Led Zeppelin / Coda (20P2-2030)

Used drive : PLEXTOR DVDR PX-L890SA Adapter: 1 ID: 0

Read mode : Secure
Utilize accurate stream : Yes
Defeat audio cache : Yes
Make use of C2 pointers : No

Read offset correction : 6
Overread into Lead-In and Lead-Out : No
Fill up missing offset samples with silence : Yes
Delete leading and trailing silent blocks : No
Null samples used in CRC calculations : Yes
Used interface : Native Win32 interface for Win NT & 2000

Used output format : User Defined Encoder
Selected bitrate : 768 kBit/s
Quality : High
Add ID3 tag : No
Command line compressor : d:\Program Files\Exact Audio Copy\FLAC\FLAC.EXE
Additional command line options : -T “DATE=%y” -T “GENRE=%m” -8 -V %s

TOC of the extracted CD

Track | Start | Length | Start sector | End sector
———————————————————
1 | 0:00.00 | 2:37.60 | 0 | 11834
2 | 2:37.60 | 3:03.05 | 11835 | 25564
3 | 5:40.65 | 4:18.15 | 25565 | 44929
4 | 9:59.05 | 4:30.50 | 44930 | 65229
5 | 14:29.55 | 3:36.27 | 65230 | 81456
6 | 18:06.07 | 5:07.08 | 81457 | 104489
7 | 23:13.15 | 4:18.50 | 104490 | 123889
8 | 27:31.65 | 5:30.45 | 123890 | 148684

Range status and errors

Selected range

Filename H:\MUSIC\COLLECTION\Led Zeppelin\1982 Coda (20P2-2030)\Led Zeppelin – Coda (20P2-2030).wav

Peak level 97.0 %
Range quality 100.0 %
Test CRC 28A29366
Copy CRC 28A29366
Copy OK

No errors occurred

AccurateRip summary

Track 1 accurately ripped (confidence 4) [513A0E90]
Track 2 accurately ripped (confidence 4) [71C6BFE7]
Track 3 accurately ripped (confidence 4) [68F1181A]
Track 4 accurately ripped (confidence 4) [7B077EF0]
Track 5 accurately ripped (confidence 4) [4F6BD224]
Track 6 accurately ripped (confidence 4) [544117A1]
Track 7 accurately ripped (confidence 4) [C382DA00]
Track 8 accurately ripped (confidence 4) [9D7D05E5]

All tracks accurately ripped

End of status report

REM GENRE Rock
REM DATE 1982
REM DISCID 6307BE08
REM COMMENT “ExactAudioCopy v0.99pb5”
PERFORMER “Led Zeppelin”
TITLE “Coda (20P2-2030)”
FILE “Led Zeppelin – Coda (20P2-2030).flac” WAVE
TRACK 01 AUDIO
TITLE “We’re Gonna Groove”
PERFORMER “Led Zeppelin”
INDEX 01 00:00:00
TRACK 02 AUDIO
TITLE “Poor Tom”
PERFORMER “Led Zeppelin”
INDEX 01 02:37:60
TRACK 03 AUDIO
TITLE “I Can’t Quit You Baby”
PERFORMER “Led Zeppelin”
INDEX 01 05:40:65
TRACK 04 AUDIO
TITLE “Walter’s Walk”
PERFORMER “Led Zeppelin”
INDEX 01 09:59:05
TRACK 05 AUDIO
TITLE “Ozone Baby”
PERFORMER “Led Zeppelin”
INDEX 01 14:29:55
TRACK 06 AUDIO
TITLE “Darlene”
PERFORMER “Led Zeppelin”
INDEX 01 18:06:07
TRACK 07 AUDIO
TITLE “Bonzo’s Montreux”
PERFORMER “Led Zeppelin”
INDEX 01 23:13:15
TRACK 08 AUDIO
TITLE “Wearing and Tearing”
PERFORMER “Led Zeppelin”
INDEX 01 27:31:65


Leave a Reply

Your email address will not be published. Required fields are marked *

Enter the text from the image below
 

This site uses Akismet to reduce spam. Learn how your comment data is processed.