Led Zeppelin – Coda (Japanese Edition)




No Cover available

Artist: Led Zeppelin
Year: 1982/1987
Genre: Rock
Notes: Discogs
Add. Notes: Japanese Edition
Watch Songs on: YouTube
Cover incl.: Yes
Encoder: FLAC
Bitrate: ~900 kBit/s (44.1 kHz/16 Bit/s)
Log & Cue incl.: Yes/Yes
Size: 496 MB
Password: “slam” (without ” “)


All Downloads/Hosters are compatible

Download 1
KatFile.com
Turbobit.net
Rapidgator.net
FileFactory.com
Download 2
KatFile.com
Turbobit.net
Rapidgator.net
FileFactory.com

Tracklist:

1 We're Gonna Groove 2:37
2 Poor Tom 3:02
3 I Can't Quit You Baby 4:16
4 Walter's Walk 4:31
5 Ozone Baby 3:35
6 Darlene 4:37
7 Bonzo's Montreux 4:18
8 Wearing And Tearing 5:28

EAC-Log, CUE-Sheed & NFO:

Click to open spoiler
Exact Audio Copy V0.99 prebeta 5 from 4. May 2009

EAC extraction logfile from 17. September 2013, 17:45

Led Zeppelin / Coda

Used drive : PLEXTOR DVDR PX-L890SA Adapter: 1 ID: 0

Read mode : Secure
Utilize accurate stream : Yes
Defeat audio cache : Yes
Make use of C2 pointers : No

Read offset correction : 6
Overread into Lead-In and Lead-Out : No
Fill up missing offset samples with silence : Yes
Delete leading and trailing silent blocks : No
Null samples used in CRC calculations : Yes
Used interface : Native Win32 interface for Win NT & 2000

Used output format : User Defined Encoder
Selected bitrate : 768 kBit/s
Quality : High
Add ID3 tag : No
Command line compressor : d:\Program Files\Exact Audio Copy\FLAC\FLAC.EXE
Additional command line options : -T “DATE=%y” -T “GENRE=%m” -8 -V %s

TOC of the extracted CD

Track | Start | Length | Start sector | End sector
———————————————————
1 | 0:00.37 | 2:37.60 | 37 | 11871
2 | 2:38.22 | 3:03.05 | 11872 | 25601
3 | 5:41.27 | 4:18.15 | 25602 | 44966
4 | 9:59.42 | 4:30.50 | 44967 | 65266
5 | 14:30.17 | 3:36.28 | 65267 | 81494
6 | 18:06.45 | 5:07.07 | 81495 | 104526
7 | 23:13.52 | 4:18.50 | 104527 | 123926
8 | 27:32.27 | 5:30.45 | 123927 | 148721

Range status and errors

Selected range

Filename H:\MUSIC\COLLECTION\Led Zeppelin\1982 Coda (32 XD – 629)\Led Zeppelin – Coda.wav

Peak level 97.0 %
Range quality 100.0 %
Test CRC C6335CC3
Copy CRC C6335CC3
Copy OK

No errors occurred

AccurateRip summary

Track 1 not present in database
Track 2 not present in database
Track 3 not present in database
Track 4 not present in database
Track 5 not present in database
Track 6 not present in database
Track 7 not present in database
Track 8 not present in database

None of the tracks are present in the AccurateRip database

End of status report

REM GENRE “Classic Rock”
REM DATE 1982
REM DISCID 5E07BE08
REM COMMENT “ExactAudioCopy v0.99pb5”
PERFORMER “Led Zeppelin”
TITLE “Coda”
FILE “Led Zeppelin – Coda.flac” WAVE
TRACK 01 AUDIO
TITLE “We’re Gonna Groove”
PERFORMER “Led Zeppelin”
INDEX 00 00:00:00
INDEX 01 00:00:37
TRACK 02 AUDIO
TITLE “Poor Tom”
PERFORMER “Led Zeppelin”
INDEX 01 02:38:22
TRACK 03 AUDIO
TITLE “I Can’t Quit You Baby”
PERFORMER “Led Zeppelin”
INDEX 01 05:41:27
TRACK 04 AUDIO
TITLE “Walter’s Walk”
PERFORMER “Led Zeppelin”
INDEX 01 09:59:42
TRACK 05 AUDIO
TITLE “Ozone Baby”
PERFORMER “Led Zeppelin”
INDEX 01 14:30:17
TRACK 06 AUDIO
TITLE “Darlene”
PERFORMER “Led Zeppelin”
INDEX 00 18:06:44
INDEX 01 18:06:45
TRACK 07 AUDIO
TITLE “Bonzo’s Montreux”
PERFORMER “Led Zeppelin”
INDEX 01 23:13:52
TRACK 08 AUDIO
TITLE “Wearing & Tearing”
PERFORMER “Led Zeppelin”
INDEX 01 27:32:27


Leave a Reply

Your email address will not be published. Required fields are marked *

Enter the text from the image below
 

This site uses Akismet to reduce spam. Learn how your comment data is processed.