Led Zeppelin – Celebration Day (Deluxe Edition)




Artist: Led Zeppelin
Year: 2012
Genre: Rock
Notes: Discogs
Add. Notes: Deluxe Edition
Cover incl.: Yes
Encoder: FLAC
Bitrate: ~1000 kBit/s (44.1 kHz/16 Bit/s)
Log & Cue incl.: Yes
Size: 1263,3 MB
Password: “slam” (without ” “)


All Downloads/Hosters are compatible

Download 1
KatFile.com
Turbobit.net
FileFactory.com
Rapidgator.net
Download 2
KatFile.com
Turbobit.net
FileFactory.com
Rapidgator.net

Tracklist:

CD1
1 Good Times Bad Times 3:10
2 Ramble On 5:37
3 Black Dog 5:18
4 In My Time Of Dying 11:01
5 For Your Life 6:08
6 Trampled Under Foot 6:02
7 Nobody's Fault But Mine 6:24
8 No Quarter 9:00

CD2
1 Since I've Been Loving You 7:35
2 Dazed And Confused 11:19
3 Stairway To Heaven 8:28
4 The Song Remains The Same 5:35
5 Misty Mountain Hop 4:48
6 Kashmir 8:48
7 Whole Lotta Love 6:49
8 Rock And Roll 4:19

EAC-Log, CUE-Sheed & NFO:

Click to open spoiler
Exact Audio Copy V0.99 prebeta 5 from 4. May 2009

EAC extraction logfile from 18. August 2013, 20:33

Led Zeppelin / Celebration Day – Disc 1

Used drive : PLEXTOR DVDR PX-L890SA Adapter: 1 ID: 0

Read mode : Secure
Utilize accurate stream : Yes
Defeat audio cache : Yes
Make use of C2 pointers : No

Read offset correction : 6
Overread into Lead-In and Lead-Out : No
Fill up missing offset samples with silence : Yes
Delete leading and trailing silent blocks : No
Null samples used in CRC calculations : Yes
Used interface : Native Win32 interface for Win NT & 2000

Used output format : User Defined Encoder
Selected bitrate : 768 kBit/s
Quality : High
Add ID3 tag : No
Command line compressor : d:\Program Files\Exact Audio Copy\FLAC\FLAC.EXE
Additional command line options : -T “DATE=%y” -T “GENRE=%m” -8 -V %s

TOC of the extracted CD

Track | Start | Length | Start sector | End sector
———————————————————
1 | 0:00.00 | 3:11.42 | 0 | 14366
2 | 3:11.42 | 5:44.42 | 14367 | 40208
3 | 8:56.09 | 5:53.30 | 40209 | 66713
4 | 14:49.39 | 11:10.59 | 66714 | 117022
5 | 26:00.23 | 6:40.32 | 117023 | 147054
6 | 32:40.55 | 6:19.42 | 147055 | 175521
7 | 39:00.22 | 6:43.66 | 175522 | 205812
8 | 45:44.13 | 9:21.49 | 205813 | 247936

Range status and errors

Selected range

Filename H:\MUSIC\COLLECTION\Led Zeppelin\2012 Celebration Day\Led Zeppelin – Celebration Day – Disc 1.wav

Peak level 100.0 %
Range quality 100.0 %
Test CRC 5B768808
Copy CRC 5B768808
Copy OK

No errors occurred

AccurateRip summary

Track 1 accurately ripped (confidence 37) [C9E20FB6]
Track 2 accurately ripped (confidence 37) [EBD68222]
Track 3 accurately ripped (confidence 37) [5F9BB850]
Track 4 accurately ripped (confidence 37) [A4036073]
Track 5 accurately ripped (confidence 37) [336510EC]
Track 6 accurately ripped (confidence 37) [088795EA]
Track 7 accurately ripped (confidence 37) [D8449642]
Track 8 accurately ripped (confidence 37) [90572511]

All tracks accurately ripped

End of status report

Exact Audio Copy V0.99 prebeta 5 from 4. May 2009

EAC extraction logfile from 18. August 2013, 21:54

Led Zeppelin / Celebration Day (Disc 2)

Used drive : PLEXTOR DVDR PX-L890SA Adapter: 1 ID: 0

Read mode : Secure
Utilize accurate stream : Yes
Defeat audio cache : Yes
Make use of C2 pointers : No

Read offset correction : 6
Overread into Lead-In and Lead-Out : No
Fill up missing offset samples with silence : Yes
Delete leading and trailing silent blocks : No
Null samples used in CRC calculations : Yes
Used interface : Native Win32 interface for Win NT & 2000

Used output format : User Defined Encoder
Selected bitrate : 768 kBit/s
Quality : High
Add ID3 tag : No
Command line compressor : d:\Program Files\Exact Audio Copy\FLAC\FLAC.EXE
Additional command line options : -T “DATE=%y” -T “GENRE=%m” -8 -V %s

TOC of the extracted CD

Track | Start | Length | Start sector | End sector
———————————————————
1 | 0:00.00 | 7:52.19 | 0 | 35418
2 | 7:52.19 | 11:44.13 | 35419 | 88231
3 | 19:36.32 | 8:49.20 | 88232 | 127926
4 | 28:25.52 | 5:46.59 | 127927 | 153935
5 | 34:12.36 | 5:08.25 | 153936 | 177060
6 | 39:20.61 | 9:06.45 | 177061 | 218055
7 | 48:27.31 | 7:26.28 | 218056 | 251533
8 | 55:53.59 | 4:34.72 | 251534 | 272155

Range status and errors

Selected range

Filename H:\MUSIC\COLLECTION\Led Zeppelin\2012 Celebration Day\Led Zeppelin – Celebration Day – Disc 2.wav

Peak level 99.6 %
Range quality 100.0 %
Test CRC DC0202BF
Copy CRC DC0202BF
Copy OK

No errors occurred

AccurateRip summary

Track 1 accurately ripped (confidence 36) [C723995E]
Track 2 accurately ripped (confidence 36) [41A2F8A4]
Track 3 accurately ripped (confidence 36) [5028B1AD]
Track 4 accurately ripped (confidence 36) [B2DA6467]
Track 5 accurately ripped (confidence 36) [37379509]
Track 6 accurately ripped (confidence 35) [E4A11F91]
Track 7 accurately ripped (confidence 36) [41623C44]
Track 8 accurately ripped (confidence 36) [C370F708]

All tracks accurately ripped

End of status report

REM GENRE Rock
REM DATE 2012
REM DISCID 6F0CE908
REM COMMENT “ExactAudioCopy v0.99pb5”
PERFORMER “Led Zeppelin”
TITLE “Celebration Day – Disc 1”
FILE “Led Zeppelin – Celebration Day – Disc 1.flac” WAVE
TRACK 01 AUDIO
TITLE “Good Times Bad Times”
PERFORMER “Led Zeppelin”
INDEX 01 00:00:00
TRACK 02 AUDIO
TITLE “Ramble On”
PERFORMER “Led Zeppelin”
INDEX 01 03:11:42
TRACK 03 AUDIO
TITLE “Black Dog”
PERFORMER “Led Zeppelin”
INDEX 01 08:56:09
TRACK 04 AUDIO
TITLE “In My Time Of Dying”
PERFORMER “Led Zeppelin”
INDEX 01 14:49:39
TRACK 05 AUDIO
TITLE “For Your Life”
PERFORMER “Led Zeppelin”
INDEX 01 26:00:23
TRACK 06 AUDIO
TITLE “Trampled Under Foot”
PERFORMER “Led Zeppelin”
INDEX 01 32:40:55
TRACK 07 AUDIO
TITLE “Nobody’s Fault But Mine”
PERFORMER “Led Zeppelin”
INDEX 01 39:00:22
TRACK 08 AUDIO
TITLE “No Quarter”
PERFORMER “Led Zeppelin”
INDEX 01 45:44:13

REM GENRE Rock
REM DATE 2007
REM DISCID 6D0E2C08
REM COMMENT “ExactAudioCopy v0.99pb5”
PERFORMER “Led Zeppelin”
TITLE “Celebration Day (Disc 2)”
FILE “Led Zeppelin – Celebration Day – Disc 2.flac” WAVE
TRACK 01 AUDIO
TITLE “Since I’ve Been Loving You”
PERFORMER “Led Zeppelin”
INDEX 01 00:00:00
TRACK 02 AUDIO
TITLE “Dazed And Confused”
PERFORMER “Led Zeppelin”
INDEX 01 07:52:19
TRACK 03 AUDIO
TITLE “Stairway To Heaven”
PERFORMER “Led Zeppelin”
INDEX 01 19:36:32
TRACK 04 AUDIO
TITLE “The Song Remains The Same”
PERFORMER “Led Zeppelin”
INDEX 01 28:25:52
TRACK 05 AUDIO
TITLE “Misty Mountain Hop”
PERFORMER “Led Zeppelin”
INDEX 01 34:12:36
TRACK 06 AUDIO
TITLE “Kashmir”
PERFORMER “Led Zeppelin”
INDEX 01 39:20:61
TRACK 07 AUDIO
TITLE “Whole Lotta Love”
PERFORMER “Led Zeppelin”
INDEX 01 48:27:31
TRACK 08 AUDIO
TITLE “Rock And Roll”
PERFORMER “Led Zeppelin”
INDEX 01 55:53:59


0

Publication author

offline 11 hours

Chaos

3
Comments: 3Publics: 3189Registration: 02-02-2019
Spread the Download

Leave a Reply

Your email address will not be published. Required fields are marked *

Enter the text from the image below
 

This site uses Akismet to reduce spam. Learn how your comment data is processed.