Lagwagon – Trashed




[Total: 0    Average: 0/5]

Artist: Lagwagon
Year: 1994
Genre: Punk
Notes: Discogs
Add. Notes:
Cover incl.: No
Encoder: FLAC
Bitrate: ~900 kBit/s (44.1 kHz/16 Bit/s)
Log & Cue incl.: Yes
Size: 268,29 MB
Password: “slam” (without ” “)


All Downloads/Hosters are compatible

Download 1
Share-online.biz
KatFile.com
Rapidgator.net
Download 2
Share-online.biz
KatFile.com
Rapidgator.net

Tracklist:

1 - Island Of Shame - 2:39
2 - Lazy - 1:48
3 - Know It All - 2:29
4 - Stokin' The Neighbours - 3:08
5 - Give It Back - 2:36
6 - Rust - 2:58
7 - Goin' South - 2:00
8 - Dis'chords - 3:15
9 - Coffee And Cigarettes - 2:51
10 - Brown Eyed Girl - 3:22
11 - Whipping Boy - 2:22
12 - No One - 2:01
13 - Bye For Now - 3:47
14 - Back One Out - 1:31

EAC-Log, CUE-Sheed & NFO:

Click to open spoiler
EAC extraction logfile from 3. December 2006, 22:10 for CD
Lagwagon / Trashed

Used drive : QSI CDRW/DVD SBW-242 Adapter: 1 ID: 0
Read mode : Secure with NO C2, accurate stream, disable cache
Read offset correction : 6
Overread into Lead-In and Lead-Out : No

Used output format : C:\Programmi\Exact Audio Copy\FLAC\bin\flac.exe (User Defined Encoder)
320 kBit/s
Additional command line options : -V -8 -T “artist=%a” -T “title=%t” -T “album=%g” -T “date=%y” -T “tracknumber=%n” -T “genre=%m” %s

Other options :
Fill up missing offset samples with silence : Yes
Delete leading and trailing silent blocks : No
Native Win32 interface for Win NT & 2000

Track 1
Filename C:\Documents and Settings\Carlo\Desktop\Lagwagon – Trashed\01_-_Island_of_shame.wav

Pre-gap length 0:00:02.00

Peak level 94.6 %
Track quality 100.0 %
Test CRC 07652848
Copy CRC 07652848
Copy OK

Track 2
Filename C:\Documents and Settings\Carlo\Desktop\Lagwagon – Trashed\02_-_Lazy.wav

Peak level 94.6 %
Track quality 99.9 %
Test CRC 381AFA35
Copy CRC 2438F7E2
Copy OK

Track 3
Filename C:\Documents and Settings\Carlo\Desktop\Lagwagon – Trashed\03_-_Know_It_All.wav

Pre-gap length 0:00:00.64

Peak level 94.6 %
Track quality 100.0 %
Test CRC 2971F01F
Copy CRC 2971F01F
Copy OK

Track 4
Filename C:\Documents and Settings\Carlo\Desktop\Lagwagon – Trashed\04_-_Stokin’_The_Neighbours.wav

Pre-gap length 0:00:01.22

Peak level 94.6 %
Track quality 100.0 %
Test CRC A183D3DA
Copy CRC A183D3DA
Copy OK

Track 5
Filename C:\Documents and Settings\Carlo\Desktop\Lagwagon – Trashed\05_-_Give_It_Back.wav

Pre-gap length 0:00:01.46

Peak level 94.6 %
Track quality 100.0 %
Test CRC A35B99C5
Copy CRC A35B99C5
Copy OK

Track 6
Filename C:\Documents and Settings\Carlo\Desktop\Lagwagon – Trashed\06_-_Rust.wav

Pre-gap length 0:00:00.13

Peak level 94.6 %
Track quality 100.0 %
Test CRC 2E7FEA04
Copy CRC 2E7FEA04
Copy OK

Track 7
Filename C:\Documents and Settings\Carlo\Desktop\Lagwagon – Trashed\07_-_Goin’_South.wav

Pre-gap length 0:00:00.60

Peak level 94.6 %
Track quality 100.0 %
Test CRC DD481EEC
Copy CRC DD481EEC
Copy OK

Track 8
Filename C:\Documents and Settings\Carlo\Desktop\Lagwagon – Trashed\08_-_Dis’chords.wav

Pre-gap length 0:00:01.49

Peak level 94.6 %
Track quality 100.0 %
Test CRC 812D5791
Copy CRC 812D5791
Copy OK

Track 9
Filename C:\Documents and Settings\Carlo\Desktop\Lagwagon – Trashed\09_-_Coffee_And_Cigarettes.wav

Pre-gap length 0:00:00.69

Peak level 94.6 %
Track quality 100.0 %
Test CRC CD322372
Copy CRC CD322372
Copy OK

Track 10
Filename C:\Documents and Settings\Carlo\Desktop\Lagwagon – Trashed\10_-_Brown_Eyed_Girl.wav

Pre-gap length 0:00:00.93

Peak level 94.6 %
Track quality 99.9 %
Test CRC 9B8DF4E6
Copy CRC 9B8DF4E6
Copy OK

Track 11
Filename C:\Documents and Settings\Carlo\Desktop\Lagwagon – Trashed\11_-_Whipping_Boy.wav

Pre-gap length 0:00:00.33

Peak level 94.6 %
Track quality 100.0 %
Test CRC AFB1F92A
Copy CRC AFB1F92A
Copy OK

Track 12
Filename C:\Documents and Settings\Carlo\Desktop\Lagwagon – Trashed\12_-_No-one.wav

Pre-gap length 0:00:00.46

Peak level 94.6 %
Track quality 99.9 %
Test CRC 8426A4D6
Copy CRC 8426A4D6
Copy OK

Track 13
Filename C:\Documents and Settings\Carlo\Desktop\Lagwagon – Trashed\13_-_Bye_For_Now.wav

Pre-gap length 0:00:00.60

Peak level 94.6 %
Track quality 99.9 %
Test CRC 2843253E
Copy CRC 2843253E
Copy OK

Track 14
Filename C:\Documents and Settings\Carlo\Desktop\Lagwagon – Trashed\14_-_Hidden_Track.wav

Pre-gap length 0:00:01.17

Peak level 94.6 %
Track quality 100.0 %
Test CRC 0DFF8C73
Copy CRC 0DFF8C73
Copy OK

No errors occured

End of status report

REM GENRE “Punk Rock”
REM DATE 1994
REM DISCID B508A60E
REM COMMENT “ExactAudioCopy v0.95b3”
PERFORMER “Lagwagon”
TITLE “Trashed”
FILE “01 – Island of shame.wav” WAVE
TRACK 01 AUDIO
TITLE “Island of shame”
PERFORMER “Lagwagon”
INDEX 01 00:00:00
FILE “02 – Lazy.wav” WAVE
TRACK 02 AUDIO
TITLE “Lazy”
PERFORMER “Lagwagon”
INDEX 01 00:00:00
TRACK 03 AUDIO
TITLE “Know It All”
PERFORMER “Lagwagon”
INDEX 00 01:47:32
FILE “03 – Know It All.wav” WAVE
INDEX 01 00:00:00
TRACK 04 AUDIO
TITLE “Stokin’ The Neighbours”
PERFORMER “Lagwagon”
INDEX 00 02:28:20
FILE “04 – Stokin’ The Neighbours.wav” WAVE
INDEX 01 00:00:00
TRACK 05 AUDIO
TITLE “Give It Back”
PERFORMER “Lagwagon”
INDEX 00 03:07:00
FILE “05 – Give It Back.wav” WAVE
INDEX 01 00:00:00
TRACK 06 AUDIO
TITLE “Rust”
PERFORMER “Lagwagon”
INDEX 00 02:36:00
FILE “06 – Rust.wav” WAVE
INDEX 01 00:00:00
TRACK 07 AUDIO
TITLE “Goin’ South”
PERFORMER “Lagwagon”
INDEX 00 02:57:43
FILE “07 – Goin’ South.wav” WAVE
INDEX 01 00:00:00
TRACK 08 AUDIO
TITLE “Dis’chords”
PERFORMER “Lagwagon”
INDEX 00 01:59:10
FILE “08 – Dis’chords.wav” WAVE
INDEX 01 00:00:00
TRACK 09 AUDIO
TITLE “Coffee And Cigarettes”
PERFORMER “Lagwagon”
INDEX 00 03:14:48
FILE “09 – Coffee And Cigarettes.wav” WAVE
INDEX 01 00:00:00
TRACK 10 AUDIO
TITLE “Brown Eyed Girl”
PERFORMER “Lagwagon”
INDEX 00 02:51:00
FILE “10 – Brown Eyed Girl.wav” WAVE
INDEX 01 00:00:00
TRACK 11 AUDIO
TITLE “Whipping Boy”
PERFORMER “Lagwagon”
INDEX 00 03:22:18
FILE “11 – Whipping Boy.wav” WAVE
INDEX 01 00:00:00
TRACK 12 AUDIO
TITLE “No-one”
PERFORMER “Lagwagon”
INDEX 00 02:22:37
FILE “12 – No-one.wav” WAVE
INDEX 01 00:00:00
TRACK 13 AUDIO
TITLE “Bye For Now”
PERFORMER “Lagwagon”
INDEX 00 02:01:20
FILE “13 – Bye For Now.wav” WAVE
INDEX 01 00:00:00
TRACK 14 AUDIO
TITLE “Hidden Track”
PERFORMER “Lagwagon”
INDEX 00 02:47:10
FILE “14 – Hidden Track.wav” WAVE
INDEX 01 00:00:00


Spread the Download

Leave a Reply

Your email address will not be published. Required fields are marked *

Enter the text from the image below
 

This site uses Akismet to reduce spam. Learn how your comment data is processed.