Lagwagon – Resolve




Artist: Lagwagon
Year: 2005
Genre: Punk
Notes: Discogs
Add. Notes:
Cover incl.: Yes
Encoder: FLAC
Bitrate: ~900 kBit/s (44.1 kHz/16 Bit/s)
Log & Cue incl.: Yes
Size: 234,44 MB
Password: “slam” (without ” “)


All Downloads/Hosters are compatible

Download 1
Turbobit.net
NitroFlare.com
KatFile.com
Rapidgator.net
Download 2
Turbobit.net
NitroFlare.com
KatFile.com
Rapidgator.net

Tracklist:

1 - Heartbreaking Music - 2:22
2 - Automatic - 3:16
3 - Resolve - 2:07
4 - Virus - 3:31
5 - Runs In The Family - 1:56
6 - The Contortionist - 3:24
7 - Sad Astronaut - 3:01
8 - Rager - 1:21
9 - The Worst - 2:30
10 - Creepy - 1:32
11 - Infectious - 3:50
12 - Days Of New - 10:53

EAC-Log, CUE-Sheed & NFO:

Click to open spoiler
X Lossless Decoder version 20090930 (110.0)

XLD extraction logfile from 2009-11-05 19:31:28 -0500

Lagwagon / Resolve

Used drive : MATSHITA DVD-R UJ-846 (revision FB2U)

Use cdparanoia mode : YES (CDParanoia III 10.2 engine)
Disable audio cache : OK for the drive with cache less than 2750KB
Make use of C2 pointers : NO
Read offset correction : 102
Max retry count : 100

TOC of the extracted CD
Track | Start | Length | Start sector | End sector
———————————————————
1 | 00:00:00 | 02:22:34 | 0 | 10683
2 | 02:22:34 | 03:16:35 | 10684 | 25418
3 | 05:38:69 | 02:07:21 | 25419 | 34964
4 | 07:46:15 | 03:31:37 | 34965 | 50826
5 | 11:17:52 | 01:56:15 | 50827 | 59541
6 | 13:13:67 | 03:24:70 | 59542 | 74911
7 | 16:38:62 | 03:01:30 | 74912 | 88516
8 | 19:40:17 | 01:21:03 | 88517 | 94594
9 | 21:01:20 | 02:30:60 | 94595 | 105904
10 | 23:32:05 | 01:32:00 | 105905 | 112804
11 | 25:04:05 | 03:50:12 | 112805 | 130066
12 | 28:54:17 | 10:53:45 | 130067 | 179086

All Tracks
Album gain : -9.29 dB
Peak : 0.999969

Track 01
Filename : /Lagwagon – 2005 – Resolve [FLAC]/01 Heartbreaking Music.flac

Track gain : -8.84 dB
Peak : 0.999969
CRC32 hash (test run) : 8BE4B732
CRC32 hash : 8BE4B732
CRC32 hash (skip zero) : B7BD6C6F
AccurateRip signature : 7D0509A9
->Accurately ripped! (confidence 11)
Statistics
Read error : 0
Skipped (treated as error) : 0
Edge jitter error (maybe fixed) : 0
Atom jitter error (maybe fixed) : 0
Drift error (maybe fixed) : 0
Dropped bytes error (maybe fixed) : 0
Duplicated bytes error (maybe fixed) : 0
Inconsistency in error sectors : 0

Track 02
Filename : /Lagwagon – 2005 – Resolve [FLAC]/02 Automatic.flac

Track gain : -9.48 dB
Peak : 0.999969
CRC32 hash (test run) : 367CE8EE
CRC32 hash : 367CE8EE
CRC32 hash (skip zero) : D422BB04
AccurateRip signature : 6022135C
->Accurately ripped! (confidence 11)
Statistics
Read error : 0
Skipped (treated as error) : 0
Edge jitter error (maybe fixed) : 0
Atom jitter error (maybe fixed) : 0
Drift error (maybe fixed) : 0
Dropped bytes error (maybe fixed) : 0
Duplicated bytes error (maybe fixed) : 0
Inconsistency in error sectors : 0

Track 03
Filename : /Lagwagon – 2005 – Resolve [FLAC]/03 Resolve.flac

Track gain : -9.25 dB
Peak : 0.999969
CRC32 hash (test run) : 7F856076
CRC32 hash : 7F856076
CRC32 hash (skip zero) : A42A376B
AccurateRip signature : B7A61FDE
->Accurately ripped! (confidence 11)
Statistics
Read error : 0
Skipped (treated as error) : 0
Edge jitter error (maybe fixed) : 0
Atom jitter error (maybe fixed) : 0
Drift error (maybe fixed) : 0
Dropped bytes error (maybe fixed) : 0
Duplicated bytes error (maybe fixed) : 0
Inconsistency in error sectors : 0

Track 04
Filename : /Lagwagon – 2005 – Resolve [FLAC]/04 Virus.flac

Track gain : -9.20 dB
Peak : 0.999969
CRC32 hash (test run) : BAA915AB
CRC32 hash : BAA915AB
CRC32 hash (skip zero) : 788CEB4F
AccurateRip signature : CE998168
->Accurately ripped! (confidence 11)
Statistics
Read error : 0
Skipped (treated as error) : 0
Edge jitter error (maybe fixed) : 0
Atom jitter error (maybe fixed) : 0
Drift error (maybe fixed) : 0
Dropped bytes error (maybe fixed) : 0
Duplicated bytes error (maybe fixed) : 0
Inconsistency in error sectors : 0

Track 05
Filename : /Lagwagon – 2005 – Resolve [FLAC]/05 Runs in the Family.flac

Track gain : -9.55 dB
Peak : 0.999969
CRC32 hash (test run) : 33A502D2
CRC32 hash : 33A502D2
CRC32 hash (skip zero) : C0791B32
AccurateRip signature : 9F618752
->Accurately ripped! (confidence 11)
Statistics
Read error : 0
Skipped (treated as error) : 0
Edge jitter error (maybe fixed) : 0
Atom jitter error (maybe fixed) : 0
Drift error (maybe fixed) : 0
Dropped bytes error (maybe fixed) : 0
Duplicated bytes error (maybe fixed) : 0
Inconsistency in error sectors : 0

Track 06
Filename : /Lagwagon – 2005 – Resolve [FLAC]/06 The Contortionist.flac

Track gain : -9.66 dB
Peak : 0.999969
CRC32 hash (test run) : 19FF064B
CRC32 hash : 19FF064B
CRC32 hash (skip zero) : 3B7F4918
AccurateRip signature : A34B67F9
->Accurately ripped! (confidence 11)
Statistics
Read error : 0
Skipped (treated as error) : 0
Edge jitter error (maybe fixed) : 0
Atom jitter error (maybe fixed) : 0
Drift error (maybe fixed) : 0
Dropped bytes error (maybe fixed) : 0
Duplicated bytes error (maybe fixed) : 0
Inconsistency in error sectors : 0

Track 07
Filename : /Lagwagon – 2005 – Resolve [FLAC]/07 Sad Astronaut.flac

Track gain : -9.46 dB
Peak : 0.999969
CRC32 hash (test run) : 37122EE8
CRC32 hash : 37122EE8
CRC32 hash (skip zero) : CFE5DFFF
AccurateRip signature : 11599579
->Accurately ripped! (confidence 11)
Statistics
Read error : 0
Skipped (treated as error) : 0
Edge jitter error (maybe fixed) : 1
Atom jitter error (maybe fixed) : 0
Drift error (maybe fixed) : 0
Dropped bytes error (maybe fixed) : 0
Duplicated bytes error (maybe fixed) : 1
Inconsistency in error sectors : 0

Track 08
Filename : /Lagwagon – 2005 – Resolve [FLAC]/08 Rager.flac

Track gain : -8.85 dB
Peak : 0.999969
CRC32 hash (test run) : 72A999DA
CRC32 hash : 72A999DA
CRC32 hash (skip zero) : 1F97B299
AccurateRip signature : D31A6060
->Accurately ripped! (confidence 11)
Statistics
Read error : 0
Skipped (treated as error) : 0
Edge jitter error (maybe fixed) : 1
Atom jitter error (maybe fixed) : 0
Drift error (maybe fixed) : 0
Dropped bytes error (maybe fixed) : 0
Duplicated bytes error (maybe fixed) : 1
Inconsistency in error sectors : 0

Track 09
Filename : /Lagwagon – 2005 – Resolve [FLAC]/09 The Worst.flac

Track gain : -9.15 dB
Peak : 0.999969
CRC32 hash (test run) : 09F44AA0
CRC32 hash : 09F44AA0
CRC32 hash (skip zero) : 9BF11CD1
AccurateRip signature : CCD9D967
->Accurately ripped! (confidence 11)
Statistics
Read error : 0
Skipped (treated as error) : 0
Edge jitter error (maybe fixed) : 0
Atom jitter error (maybe fixed) : 0
Drift error (maybe fixed) : 0
Dropped bytes error (maybe fixed) : 0
Duplicated bytes error (maybe fixed) : 0
Inconsistency in error sectors : 0

Track 10
Filename : /Lagwagon – 2005 – Resolve [FLAC]/10 Creepy.flac

Track gain : -9.68 dB
Peak : 0.999969
CRC32 hash (test run) : 46F01F85
CRC32 hash : 46F01F85
CRC32 hash (skip zero) : 4A11B3C5
AccurateRip signature : 9850A8E8
->Accurately ripped! (confidence 11)
Statistics
Read error : 0
Skipped (treated as error) : 0
Edge jitter error (maybe fixed) : 0
Atom jitter error (maybe fixed) : 0
Drift error (maybe fixed) : 0
Dropped bytes error (maybe fixed) : 0
Duplicated bytes error (maybe fixed) : 0
Inconsistency in error sectors : 0

Track 11
Filename : /Lagwagon – 2005 – Resolve [FLAC]/11 Infectious.flac

Track gain : -9.60 dB
Peak : 0.999969
CRC32 hash (test run) : BB66D44B
CRC32 hash : BB66D44B
CRC32 hash (skip zero) : 130F9875
AccurateRip signature : F6187096
->Accurately ripped! (confidence 11)
Statistics
Read error : 0
Skipped (treated as error) : 0
Edge jitter error (maybe fixed) : 0
Atom jitter error (maybe fixed) : 0
Drift error (maybe fixed) : 0
Dropped bytes error (maybe fixed) : 0
Duplicated bytes error (maybe fixed) : 0
Inconsistency in error sectors : 0

Track 12
Filename : /Lagwagon – 2005 – Resolve [FLAC]/12 Days of New.flac

Track gain : -8.70 dB
Peak : 0.999969
CRC32 hash (test run) : EBD7BAB7
CRC32 hash : EBD7BAB7
CRC32 hash (skip zero) : A4EFBC44
AccurateRip signature : 569C1954
->Accurately ripped! (confidence 11)
Statistics
Read error : 0
Skipped (treated as error) : 0
Edge jitter error (maybe fixed) : 0
Atom jitter error (maybe fixed) : 0
Drift error (maybe fixed) : 0
Dropped bytes error (maybe fixed) : 0
Duplicated bytes error (maybe fixed) : 0
Inconsistency in error sectors : 0

No errors occurred

End of status report

TITLE “Resolve”
PERFORMER “Lagwagon”
REM GENRE “Punk Rock”
REM DATE “2005-11-01”
FILE “01 Heartbreaking Music.wav” WAVE
TRACK 01 AUDIO
TITLE “Heartbreaking Music”
INDEX 01 00:00:00
FILE “02 Automatic.wav” WAVE
TRACK 02 AUDIO
TITLE “Automatic”
INDEX 01 00:00:00
FILE “03 Resolve.wav” WAVE
TRACK 03 AUDIO
TITLE “Resolve”
INDEX 01 00:00:00
FILE “04 Virus.wav” WAVE
TRACK 04 AUDIO
TITLE “Virus”
INDEX 01 00:00:00
TRACK 05 AUDIO
TITLE “Runs in the Family”
INDEX 00 03:30:20
FILE “05 Runs in the Family.wav” WAVE
INDEX 01 00:00:00
FILE “06 The Contortionist.wav” WAVE
TRACK 06 AUDIO
TITLE “The Contortionist”
INDEX 01 00:00:00
TRACK 07 AUDIO
TITLE “Sad Astronaut”
INDEX 00 03:23:68
FILE “07 Sad Astronaut.wav” WAVE
INDEX 01 00:00:00
FILE “08 Rager.wav” WAVE
TRACK 08 AUDIO
TITLE “Rager”
INDEX 01 00:00:00
TRACK 09 AUDIO
TITLE “The Worst”
INDEX 00 01:19:48
FILE “09 The Worst.wav” WAVE
INDEX 01 00:00:00
FILE “10 Creepy.wav” WAVE
TRACK 10 AUDIO
TITLE “Creepy”
INDEX 01 00:00:00
FILE “11 Infectious.wav” WAVE
TRACK 11 AUDIO
TITLE “Infectious”
INDEX 01 00:00:00
FILE “12 Days of New.wav” WAVE
TRACK 12 AUDIO
TITLE “Days of New”
INDEX 01 00:00:00


Leave a Reply

Your email address will not be published. Required fields are marked *

This site uses Akismet to reduce spam. Learn how your comment data is processed.