Lagwagon – Live in a Dive




Artist: Lagwagon
Year: 2005
Genre: Punk
Notes: Discogs
Add. Notes:
Cover incl.: Yes
Encoder: FLAC
Bitrate: ~1000 kBit/s (44.1 kHz/16 Bit/s)
Log & Cue incl.: Yes
Size: 449,04 MB
Password: “slam” (without ” “)


All Downloads/Hosters are compatible

Download 1
Turbobit.net
NitroFlare.com
KatFile.com
Rapidgator.net
Download 2
Turbobit.net
NitroFlare.com
KatFile.com
Rapidgator.net

Tracklist:

1. Alien 8 	
2. Violins 	
3. Messengers 	
4. Never Stops 	
5. Sick 	
6. Island Of Shame 	
7. Give It Back 	
8. Making Friends 	
9. After You My Friend 	
10. Razor Burn 	
11. Falling Apart 	
12. Sleep 	
13. Mister Bap 	
14. Beer Googles 	
15. The Chemist 	
16. Coconut 	
17. May 16th 	
18. Bombs Away 	
19. Back One Out 	
20. Burn 	
21. Coffee And Cigarettes 	
22. Stokin The Neighbors

EAC-Log, CUE-Sheed & NFO:

Click to open spoiler
Exact Audio Copy V0.99 prebeta 4 from 23. January 2008

EAC extraction logfile from 4. June 2008, 12:07

Lagwagon / Live in a Dive

Used drive : HL-DT-STDVD-ROM GDR8164B Adapter: 1 ID: 1

Read mode : Secure
Utilize accurate stream : Yes
Defeat audio cache : Yes
Make use of C2 pointers : No

Read offset correction : 102
Overread into Lead-In and Lead-Out : No
Fill up missing offset samples with silence : Yes
Delete leading and trailing silent blocks : No
Null samples used in CRC calculations : Yes
Used interface : Installed external ASPI interface
Gap handling : Appended to previous track

Used output format : User Defined Encoder
Selected bitrate : 128 kBit/s
Quality : High
Add ID3 tag : No
Command line compressor : C:\Program Files\Exact Audio Copy\Flac\flac.exe
Additional command line options : -8 -A tukey(0.25) -A gauss(0.1875) -b 4096 -V -T “artist=%a” -T “title=%t” -T “album=%g” -T “date=%y” -T “tracknumber=%n” -T “genre=%m” %s –sector-align

TOC of the extracted CD

Track | Start | Length | Start sector | End sector
———————————————————
1 | 0:00.00 | 3:08.35 | 0 | 14134
2 | 3:08.35 | 2:43.06 | 14135 | 26365
3 | 5:51.41 | 2:29.63 | 26366 | 37603
4 | 8:21.29 | 3:41.32 | 37604 | 54210
5 | 12:02.61 | 2:53.25 | 54211 | 67210
6 | 14:56.11 | 2:30.72 | 67211 | 78532
7 | 17:27.08 | 2:43.32 | 78533 | 90789
8 | 20:10.40 | 2:54.34 | 90790 | 103873
9 | 23:04.74 | 2:26.03 | 103874 | 114826
10 | 25:31.02 | 2:45.46 | 114827 | 127247
11 | 28:16.48 | 3:04.66 | 127248 | 141113
12 | 31:21.39 | 3:07.02 | 141114 | 155140
13 | 34:28.41 | 0:40.57 | 155141 | 158197
14 | 35:09.23 | 3:36.58 | 158198 | 174455
15 | 38:46.06 | 3:02.07 | 174456 | 188112
16 | 41:48.13 | 1:57.27 | 188113 | 196914
17 | 43:45.40 | 3:03.15 | 196915 | 210654
18 | 46:48.55 | 3:43.57 | 210655 | 227436
19 | 50:32.37 | 3:03.55 | 227437 | 241216
20 | 53:36.17 | 3:33.70 | 241217 | 257261
21 | 57:10.12 | 2:57.51 | 257262 | 270587
22 | 60:07.63 | 3:14.03 | 270588 | 285140
23 | 65:53.66 | 7:21.38 | 296541 | 329653

Track 1

Filename D:\Rip\Lagwagon\Live in a Dive\01 Alien 8.wav

Pre-gap length 0:00:02.00

Peak level 100.0 %
Track quality 100.0 %
Test CRC CF5B9224
Copy CRC CF5B9224
Track not present in AccurateRip database
Copy OK

Track 2

Filename D:\Rip\Lagwagon\Live in a Dive\02 Violins.wav

Peak level 100.0 %
Track quality 100.0 %
Test CRC A1FC8C17
Copy CRC A1FC8C17
Track not present in AccurateRip database
Copy OK

Track 3

Filename D:\Rip\Lagwagon\Live in a Dive\03 Messengers.wav

Peak level 100.0 %
Track quality 100.0 %
Test CRC C8910D68
Copy CRC C8910D68
Track not present in AccurateRip database
Copy OK

Track 4

Filename D:\Rip\Lagwagon\Live in a Dive\04 Never Stops.wav

Peak level 100.0 %
Track quality 100.0 %
Test CRC E85CF146
Copy CRC E85CF146
Track not present in AccurateRip database
Copy OK

Track 5

Filename D:\Rip\Lagwagon\Live in a Dive\05 Sick.wav

Peak level 100.0 %
Track quality 99.9 %
Test CRC 52FBFC48
Copy CRC 52FBFC48
Track not present in AccurateRip database
Copy OK

Track 6

Filename D:\Rip\Lagwagon\Live in a Dive\06 Island of Shame.wav

Peak level 100.0 %
Track quality 100.0 %
Test CRC 709DB672
Copy CRC 709DB672
Track not present in AccurateRip database
Copy OK

Track 7

Filename D:\Rip\Lagwagon\Live in a Dive\07 Give It Back.wav

Peak level 100.0 %
Track quality 100.0 %
Test CRC 4F9EB365
Copy CRC 4F9EB365
Track not present in AccurateRip database
Copy OK

Track 8

Filename D:\Rip\Lagwagon\Live in a Dive\08 Making Friends.wav

Peak level 100.0 %
Track quality 100.0 %
Test CRC 5F44CA1E
Copy CRC 5F44CA1E
Track not present in AccurateRip database
Copy OK

Track 9

Filename D:\Rip\Lagwagon\Live in a Dive\09 After You My Friend.wav

Peak level 100.0 %
Track quality 100.0 %
Test CRC 811DA66F
Copy CRC 811DA66F
Track not present in AccurateRip database
Copy OK

Track 10

Filename D:\Rip\Lagwagon\Live in a Dive\10 Razor Burn.wav

Peak level 100.0 %
Track quality 100.0 %
Test CRC AD5BA46D
Copy CRC AD5BA46D
Track not present in AccurateRip database
Copy OK

Track 11

Filename D:\Rip\Lagwagon\Live in a Dive\11 Falling Apart.wav

Peak level 100.0 %
Track quality 100.0 %
Test CRC 1F788931
Copy CRC 1F788931
Track not present in AccurateRip database
Copy OK

Track 12

Filename D:\Rip\Lagwagon\Live in a Dive\12 Sleep.wav

Peak level 100.0 %
Track quality 100.0 %
Test CRC B43A491B
Copy CRC B43A491B
Track not present in AccurateRip database
Copy OK

Track 13

Filename D:\Rip\Lagwagon\Live in a Dive\13 Mister Bap.wav

Peak level 100.0 %
Track quality 100.0 %
Test CRC 2B70C4D2
Copy CRC 2B70C4D2
Track not present in AccurateRip database
Copy OK

Track 14

Filename D:\Rip\Lagwagon\Live in a Dive\14 Beer Goggles.wav

Peak level 100.0 %
Track quality 100.0 %
Test CRC D282CDC0
Copy CRC D282CDC0
Track not present in AccurateRip database
Copy OK

Track 15

Filename D:\Rip\Lagwagon\Live in a Dive\15 The Chemist.wav

Peak level 100.0 %
Track quality 100.0 %
Test CRC 1C13DECB
Copy CRC 1C13DECB
Track not present in AccurateRip database
Copy OK

Track 16

Filename D:\Rip\Lagwagon\Live in a Dive\16 Coconut.wav

Peak level 100.0 %
Track quality 100.0 %
Test CRC C7729B9B
Copy CRC C7729B9B
Track not present in AccurateRip database
Copy OK

Track 17

Filename D:\Rip\Lagwagon\Live in a Dive\17 May 16th.wav

Peak level 100.0 %
Track quality 100.0 %
Test CRC 117192AC
Copy CRC 117192AC
Track not present in AccurateRip database
Copy OK

Track 18

Filename D:\Rip\Lagwagon\Live in a Dive\18 Bombs Away.wav

Peak level 100.0 %
Track quality 100.0 %
Test CRC F29B346F
Copy CRC F29B346F
Track not present in AccurateRip database
Copy OK

Track 19

Filename D:\Rip\Lagwagon\Live in a Dive\19 Back One Out.wav

Peak level 100.0 %
Track quality 100.0 %
Test CRC B104C5D3
Copy CRC B104C5D3
Track not present in AccurateRip database
Copy OK

Track 20

Filename D:\Rip\Lagwagon\Live in a Dive\20 Burn.wav

Peak level 100.0 %
Track quality 100.0 %
Test CRC 6885C384
Copy CRC 6885C384
Track not present in AccurateRip database
Copy OK

Track 21

Filename D:\Rip\Lagwagon\Live in a Dive\21 Coffee and Cigarettes.wav

Peak level 100.0 %
Track quality 100.0 %
Test CRC 1F5F81AD
Copy CRC 1F5F81AD
Track not present in AccurateRip database
Copy OK

Track 22

Filename D:\Rip\Lagwagon\Live in a Dive\22 Stokin’ the Neighbors.wav

Peak level 100.0 %
Track quality 100.0 %
Test CRC 44B2AC95
Copy CRC 44B2AC95
Track not present in AccurateRip database
Copy OK

None of the tracks are present in the AccurateRip database

No errors occurred

End of status report

REM GENRE Punk
REM DATE 2005
REM DISCID 31112B17
REM COMMENT “ExactAudioCopy v0.99pb4”
PERFORMER “Lagwagon”
TITLE “Live in a Dive”
FILE “Lagwagon\Live in a Dive\01 Alien 8.wav” WAVE
TRACK 01 AUDIO
TITLE “Alien 8”
PERFORMER “Lagwagon”
INDEX 01 00:00:00
FILE “Lagwagon\Live in a Dive\02 Violins.wav” WAVE
TRACK 02 AUDIO
TITLE “Violins”
PERFORMER “Lagwagon”
INDEX 01 00:00:00
FILE “Lagwagon\Live in a Dive\03 Messengers.wav” WAVE
TRACK 03 AUDIO
TITLE “Messengers”
PERFORMER “Lagwagon”
INDEX 01 00:00:00
FILE “Lagwagon\Live in a Dive\04 Never Stops.wav” WAVE
TRACK 04 AUDIO
TITLE “Never Stops”
PERFORMER “Lagwagon”
INDEX 01 00:00:00
FILE “Lagwagon\Live in a Dive\05 Sick.wav” WAVE
TRACK 05 AUDIO
TITLE “Sick”
PERFORMER “Lagwagon”
INDEX 01 00:00:00
FILE “Lagwagon\Live in a Dive\06 Island of Shame.wav” WAVE
TRACK 06 AUDIO
TITLE “Island of Shame”
PERFORMER “Lagwagon”
INDEX 01 00:00:00
FILE “Lagwagon\Live in a Dive\07 Give It Back.wav” WAVE
TRACK 07 AUDIO
TITLE “Give It Back”
PERFORMER “Lagwagon”
INDEX 01 00:00:00
FILE “Lagwagon\Live in a Dive\08 Making Friends.wav” WAVE
TRACK 08 AUDIO
TITLE “Making Friends”
PERFORMER “Lagwagon”
INDEX 01 00:00:00
FILE “Lagwagon\Live in a Dive\09 After You My Friend.wav” WAVE
TRACK 09 AUDIO
TITLE “After You My Friend”
PERFORMER “Lagwagon”
INDEX 01 00:00:00
FILE “Lagwagon\Live in a Dive\10 Razor Burn.wav” WAVE
TRACK 10 AUDIO
TITLE “Razor Burn”
PERFORMER “Lagwagon”
INDEX 01 00:00:00
FILE “Lagwagon\Live in a Dive\11 Falling Apart.wav” WAVE
TRACK 11 AUDIO
TITLE “Falling Apart”
PERFORMER “Lagwagon”
INDEX 01 00:00:00
FILE “Lagwagon\Live in a Dive\12 Sleep.wav” WAVE
TRACK 12 AUDIO
TITLE “Sleep”
PERFORMER “Lagwagon”
INDEX 01 00:00:00
FILE “Lagwagon\Live in a Dive\13 Mister Bap.wav” WAVE
TRACK 13 AUDIO
TITLE “Mister Bap”
PERFORMER “Lagwagon”
INDEX 01 00:00:00
FILE “Lagwagon\Live in a Dive\14 Beer Goggles.wav” WAVE
TRACK 14 AUDIO
TITLE “Beer Goggles”
PERFORMER “Lagwagon”
INDEX 01 00:00:00
FILE “Lagwagon\Live in a Dive\15 The Chemist.wav” WAVE
TRACK 15 AUDIO
TITLE “The Chemist”
PERFORMER “Lagwagon”
INDEX 01 00:00:00
FILE “Lagwagon\Live in a Dive\16 Coconut.wav” WAVE
TRACK 16 AUDIO
TITLE “Coconut”
PERFORMER “Lagwagon”
INDEX 01 00:00:00
FILE “Lagwagon\Live in a Dive\17 May 16th.wav” WAVE
TRACK 17 AUDIO
TITLE “May 16th”
PERFORMER “Lagwagon”
INDEX 01 00:00:00
FILE “Lagwagon\Live in a Dive\18 Bombs Away.wav” WAVE
TRACK 18 AUDIO
TITLE “Bombs Away”
PERFORMER “Lagwagon”
INDEX 01 00:00:00
FILE “Lagwagon\Live in a Dive\19 Back One Out.wav” WAVE
TRACK 19 AUDIO
TITLE “Back One Out”
PERFORMER “Lagwagon”
INDEX 01 00:00:00
FILE “Lagwagon\Live in a Dive\20 Burn.wav” WAVE
TRACK 20 AUDIO
TITLE “Burn”
PERFORMER “Lagwagon”
INDEX 01 00:00:00
FILE “Lagwagon\Live in a Dive\21 Coffee and Cigarettes.wav” WAVE
TRACK 21 AUDIO
TITLE “Coffee and Cigarettes”
PERFORMER “Lagwagon”
INDEX 01 00:00:00
FILE “Lagwagon\Live in a Dive\22 Stokin’ the Neighbors.wav” WAVE
TRACK 22 AUDIO
TITLE “Stokin’ the Neighbors”
PERFORMER “Lagwagon”
INDEX 01 00:00:00
TRACK 23 MODEx/2xxx
TITLE “Data”
PERFORMER “Lagwagon”
INDEX 00 03:14:03


Leave a Reply

Your email address will not be published. Required fields are marked *

This site uses Akismet to reduce spam. Learn how your comment data is processed.