Lagwagon – Let’s Talk About Leftovers




Artist: Lagwagon
Year: 2000
Genre: Punk
Notes: Discogs
Add. Notes:
Cover incl.: Yes
Encoder: FLAC
Bitrate: ~900 kBit/s (44.1 kHz/16 Bit/s)
Log & Cue incl.: Yes
Size: 532,44 MB
Password: “slam” (without ” “)


All Downloads/Hosters are compatible

Download 1
Turbobit.net
KatFile.com
Rapidgator.net
Usersdrive.com
Download 2
Turbobit.net
KatFile.com
Rapidgator.net
Usersdrive.com

Tracklist:

1 - A Feedbag Of Truckstop Poetry - 1:31
2 - Narrow Straits - 2:06
3 - Burn That Bridge When We Get To It - 2:35
4 - Losing Everyone - 1:51
5 - Jimmy Johnson - 1:42
6 - Eat Your Words - 5:11
7 - Want - 3:20
8 - Bring On The Dancing Horses - 2:58
9 - Randal Gets Drunk - 0:28
10 - Raise A Family - 1:34
11 - Restrain - 2:31
12 - No One Like You - 2:42
13 - Freedom Of Choice - 2:47
14 - Brodeo - 1:54
15 - Drive By - 1:57
16 - Wind In Your Sail - 2:39
17 - Over The Hill - 2:03
18 - Defeat You - 1:45
19 - Laymens Terms - 2:41
20 - Jazzy Jeff - 1:05
21 - The Champ - 2:02
22 - Demented Rumors - 2:47
23 - Truth And Justice - 1:44
24 - No Conviction - 2:12
25 - Jaded Ways - 20:09

EAC-Log, CUE-Sheed & NFO:

Click to open spoiler
Exact Audio Copy V0.99 prebeta 4 from 23. January 2008

EAC extraction logfile from 26. August 2008, 19:44

Lagwagon / Let’s Talk About Leftovers

Used drive : SONY DVD RW DRU-720A Adapter: 5 ID: 0

Read mode : Secure
Utilize accurate stream : Yes
Defeat audio cache : Yes
Make use of C2 pointers : No

Read offset correction : 12
Overread into Lead-In and Lead-Out : No
Fill up missing offset samples with silence : Yes
Delete leading and trailing silent blocks : No
Null samples used in CRC calculations : Yes
Used interface : Installed external ASPI interface
Gap handling : Appended to previous track

Used output format : User Defined Encoder
Selected bitrate : 128 kBit/s
Quality : High
Add ID3 tag : No
Command line compressor : C:\Program Files\Exact Audio Copy\Flac\flac.exe
Additional command line options : -V -8 -T “artist=%a” -T “title=%t” -T “album=%g” -T “date=%y” -T “tracknumber=%n” -T “genre=%m” %s

TOC of the extracted CD

Track | Start | Length | Start sector | End sector
———————————————————
1 | 0:00.00 | 1:31.23 | 0 | 6847
2 | 1:31.23 | 2:06.15 | 6848 | 16312
3 | 3:37.38 | 2:35.22 | 16313 | 27959
4 | 6:12.60 | 1:51.08 | 27960 | 36292
5 | 8:03.68 | 1:42.27 | 36293 | 43969
6 | 9:46.20 | 5:11.15 | 43970 | 67309
7 | 14:57.35 | 3:20.45 | 67310 | 82354
8 | 18:18.05 | 2:58.15 | 82355 | 95719
9 | 21:16.20 | 0:28.33 | 95720 | 97852
10 | 21:44.53 | 1:34.47 | 97853 | 104949
11 | 23:19.25 | 2:31.63 | 104950 | 116337
12 | 25:51.13 | 2:42.70 | 116338 | 128557
13 | 28:34.08 | 2:47.52 | 128558 | 141134
14 | 31:21.60 | 1:54.13 | 141135 | 149697
15 | 33:15.73 | 1:57.27 | 149698 | 158499
16 | 35:13.25 | 2:39.20 | 158500 | 170444
17 | 37:52.45 | 2:03.53 | 170445 | 179722
18 | 39:56.23 | 1:45.25 | 179723 | 187622
19 | 41:41.48 | 2:41.60 | 187623 | 199757
20 | 44:23.33 | 1:05.27 | 199758 | 204659
21 | 45:28.60 | 2:02.30 | 204660 | 213839
22 | 47:31.15 | 2:47.08 | 213840 | 226372
23 | 50:18.23 | 1:44.70 | 226373 | 234242
24 | 52:03.18 | 2:12.40 | 234243 | 244182
25 | 54:15.58 | 20:09.72 | 244183 | 334929

Track 1

Filename D:\EACrips\01 – A Feedbag of Truckstop Poetry.wav

Pre-gap length 0:00:02.00

Peak level 98.8 %
Track quality 99.8 %
Test CRC 7997C3B7
Copy CRC 7997C3B7
Accurately ripped (confidence 4) [4BC32F32]
Copy OK

Track 2

Filename D:\EACrips\02 – Narrow Straits.wav

Peak level 100.0 %
Track quality 100.0 %
Test CRC 930263E0
Copy CRC 930263E0
Accurately ripped (confidence 4) [F4BEECC8]
Copy OK

Track 3

Filename D:\EACrips\03 – Burn that Bridge When We Get to It.wav

Peak level 100.0 %
Track quality 100.0 %
Test CRC 1B0EFF91
Copy CRC 1B0EFF91
Accurately ripped (confidence 5) [A161DFD5]
Copy OK

Track 4

Filename D:\EACrips\04 – Losing Everyone.wav

Peak level 100.0 %
Track quality 100.0 %
Test CRC D845E340
Copy CRC D845E340
Accurately ripped (confidence 5) [DBBCE8FC]
Copy OK

Track 5

Filename D:\EACrips\05 – Jimmy Johnson.wav

Peak level 96.6 %
Track quality 100.0 %
Test CRC 57C79AA3
Copy CRC 57C79AA3
Accurately ripped (confidence 5) [99C4FB0C]
Copy OK

Track 6

Filename D:\EACrips\06 – Eat Your Words.wav

Peak level 91.2 %
Track quality 100.0 %
Test CRC 609F55FF
Copy CRC 609F55FF
Accurately ripped (confidence 5) [1E071708]
Copy OK

Track 7

Filename D:\EACrips\07 – Want.wav

Peak level 91.2 %
Track quality 100.0 %
Test CRC CA9A59CC
Copy CRC CA9A59CC
Accurately ripped (confidence 5) [D03CC501]
Copy OK

Track 8

Filename D:\EACrips\08 – Bring on the Dancing Horses.wav

Peak level 98.9 %
Track quality 100.0 %
Test CRC B1B207E1
Copy CRC B1B207E1
Accurately ripped (confidence 5) [717D2C3F]
Copy OK

Track 9

Filename D:\EACrips\09 – Randal Gets Drunk.wav

Peak level 92.2 %
Track quality 100.0 %
Test CRC AEAF7866
Copy CRC AEAF7866
Accurately ripped (confidence 5) [11EA23A2]
Copy OK

Track 10

Filename D:\EACrips\10 – Raise A Family.wav

Peak level 100.0 %
Track quality 99.8 %
Test CRC ED3B8BCE
Copy CRC ED3B8BCE
Accurately ripped (confidence 5) [530E996A]
Copy OK

Track 11

Filename D:\EACrips\11 – Restrain.wav

Peak level 99.0 %
Track quality 100.0 %
Test CRC 1A9CAD35
Copy CRC 1A9CAD35
Accurately ripped (confidence 5) [71B8910F]
Copy OK

Track 12

Filename D:\EACrips\12 – No One Like You.wav

Peak level 98.8 %
Track quality 100.0 %
Test CRC E26BDDF9
Copy CRC E26BDDF9
Accurately ripped (confidence 5) [7E70D9A6]
Copy OK

Track 13

Filename D:\EACrips\13 – Freedom of Choice.wav

Peak level 100.0 %
Track quality 99.9 %
Test CRC 9F0631E1
Copy CRC 9F0631E1
Accurately ripped (confidence 5) [B765D06E]
Copy OK

Track 14

Filename D:\EACrips\14 – Brodeo.wav

Peak level 100.0 %
Track quality 100.0 %
Test CRC 19430E86
Copy CRC 19430E86
Accurately ripped (confidence 5) [31FD5BC5]
Copy OK

Track 15

Filename D:\EACrips\15 – Drive By.wav

Peak level 96.6 %
Track quality 100.0 %
Test CRC 3908CB21
Copy CRC 3908CB21
Accurately ripped (confidence 5) [5B65F817]
Copy OK

Track 16

Filename D:\EACrips\16 – Wind in Your Sail.wav

Peak level 100.0 %
Track quality 100.0 %
Test CRC 3E83F135
Copy CRC 3E83F135
Accurately ripped (confidence 5) [A308A3E9]
Copy OK

Track 17

Filename D:\EACrips\17 – Over the Hill.wav

Peak level 98.8 %
Track quality 100.0 %
Test CRC E298CB9D
Copy CRC E298CB9D
Accurately ripped (confidence 5) [F72F18E3]
Copy OK

Track 18

Filename D:\EACrips\18 – Defeat You.wav

Peak level 100.0 %
Track quality 100.0 %
Test CRC 5395CA8A
Copy CRC 5395CA8A
Accurately ripped (confidence 5) [CCA7FB4C]
Copy OK

Track 19

Filename D:\EACrips\19 – Laymens Terms.wav

Peak level 100.0 %
Track quality 100.0 %
Test CRC B38FB25F
Copy CRC B38FB25F
Accurately ripped (confidence 5) [9FF940A0]
Copy OK

Track 20

Filename D:\EACrips\20 – Jazzy Jeff.wav

Peak level 98.8 %
Track quality 100.0 %
Test CRC 36AD2692
Copy CRC 36AD2692
Accurately ripped (confidence 5) [41B069AA]
Copy OK

Track 21

Filename D:\EACrips\21 – The Champ.wav

Peak level 99.3 %
Track quality 100.0 %
Test CRC 2007EF7D
Copy CRC 2007EF7D
Accurately ripped (confidence 5) [088BF1B0]
Copy OK

Track 22

Filename D:\EACrips\22 – Demented Rumors.wav

Peak level 100.0 %
Track quality 100.0 %
Test CRC 40E51262
Copy CRC 40E51262
Accurately ripped (confidence 5) [86F81034]
Copy OK

Track 23

Filename D:\EACrips\23 – Truth and Justice.wav

Peak level 98.8 %
Track quality 99.8 %
Test CRC E1ABC73F
Copy CRC E1ABC73F
Accurately ripped (confidence 5) [4D909BAA]
Copy OK

Track 24

Filename D:\EACrips\24 – No Conviction.wav

Peak level 98.8 %
Track quality 100.0 %
Test CRC 2BE40159
Copy CRC 2BE40159
Accurately ripped (confidence 5) [976359D0]
Copy OK

Track 25

Filename D:\EACrips\25 – Jaded Ways.wav

Peak level 100.0 %
Track quality 100.0 %
Test CRC E09946A9
Copy CRC E09946A9
Accurately ripped (confidence 5) [CA1DC5B3]
Copy OK

All tracks accurately ripped

No errors occurred

End of status report

REM GENRE Punk
REM DATE 2000
REM DISCID 62117119
REM COMMENT “ExactAudioCopy v0.99pb4”
PERFORMER “Lagwagon”
TITLE “Let’s Talk About Leftovers”
FILE “01 – A Feedbag of Truckstop Poetry.wav” WAVE
TRACK 01 AUDIO
TITLE “A Feedbag of Truckstop Poetry”
PERFORMER “Lagwagon”
INDEX 01 00:00:00
FILE “02 – Narrow Straits.wav” WAVE
TRACK 02 AUDIO
TITLE “Narrow Straits”
PERFORMER “Lagwagon”
INDEX 01 00:00:00
FILE “03 – Burn that Bridge When We Get to It.wav” WAVE
TRACK 03 AUDIO
TITLE “Burn that Bridge When We Get to It”
PERFORMER “Lagwagon”
INDEX 01 00:00:00
FILE “04 – Losing Everyone.wav” WAVE
TRACK 04 AUDIO
TITLE “Losing Everyone”
PERFORMER “Lagwagon”
INDEX 01 00:00:00
FILE “05 – Jimmy Johnson.wav” WAVE
TRACK 05 AUDIO
TITLE “Jimmy Johnson”
PERFORMER “Lagwagon”
INDEX 01 00:00:00
FILE “06 – Eat Your Words.wav” WAVE
TRACK 06 AUDIO
TITLE “Eat Your Words”
PERFORMER “Lagwagon”
INDEX 01 00:00:00
FILE “07 – Want.wav” WAVE
TRACK 07 AUDIO
TITLE “Want”
PERFORMER “Lagwagon”
INDEX 01 00:00:00
FILE “08 – Bring on the Dancing Horses.wav” WAVE
TRACK 08 AUDIO
TITLE “Bring on the Dancing Horses”
PERFORMER “Lagwagon”
INDEX 01 00:00:00
FILE “09 – Randal Gets Drunk.wav” WAVE
TRACK 09 AUDIO
TITLE “Randal Gets Drunk”
PERFORMER “Lagwagon”
INDEX 01 00:00:00
FILE “10 – Raise A Family.wav” WAVE
TRACK 10 AUDIO
TITLE “Raise A Family”
PERFORMER “Lagwagon”
INDEX 01 00:00:00
FILE “11 – Restrain.wav” WAVE
TRACK 11 AUDIO
TITLE “Restrain”
PERFORMER “Lagwagon”
INDEX 01 00:00:00
FILE “12 – No One Like You.wav” WAVE
TRACK 12 AUDIO
TITLE “No One Like You”
PERFORMER “Lagwagon”
INDEX 01 00:00:00
FILE “13 – Freedom of Choice.wav” WAVE
TRACK 13 AUDIO
TITLE “Freedom of Choice”
PERFORMER “Lagwagon”
INDEX 01 00:00:00
FILE “14 – Brodeo.wav” WAVE
TRACK 14 AUDIO
TITLE “Brodeo”
PERFORMER “Lagwagon”
INDEX 01 00:00:00
FILE “15 – Drive By.wav” WAVE
TRACK 15 AUDIO
TITLE “Drive By”
PERFORMER “Lagwagon”
INDEX 01 00:00:00
FILE “16 – Wind in Your Sail.wav” WAVE
TRACK 16 AUDIO
TITLE “Wind in Your Sail”
PERFORMER “Lagwagon”
INDEX 01 00:00:00
FILE “17 – Over the Hill.wav” WAVE
TRACK 17 AUDIO
TITLE “Over the Hill”
PERFORMER “Lagwagon”
INDEX 01 00:00:00
FILE “18 – Defeat You.wav” WAVE
TRACK 18 AUDIO
TITLE “Defeat You”
PERFORMER “Lagwagon”
INDEX 01 00:00:00
FILE “19 – Laymens Terms.wav” WAVE
TRACK 19 AUDIO
TITLE “Laymens Terms”
PERFORMER “Lagwagon”
INDEX 01 00:00:00
FILE “20 – Jazzy Jeff.wav” WAVE
TRACK 20 AUDIO
TITLE “Jazzy Jeff”
PERFORMER “Lagwagon”
INDEX 01 00:00:00
FILE “21 – The Champ.wav” WAVE
TRACK 21 AUDIO
TITLE “The Champ”
PERFORMER “Lagwagon”
INDEX 01 00:00:00
FILE “22 – Demented Rumors.wav” WAVE
TRACK 22 AUDIO
TITLE “Demented Rumors”
PERFORMER “Lagwagon”
INDEX 01 00:00:00
FILE “23 – Truth and Justice.wav” WAVE
TRACK 23 AUDIO
TITLE “Truth and Justice”
PERFORMER “Lagwagon”
INDEX 01 00:00:00
FILE “24 – No Conviction.wav” WAVE
TRACK 24 AUDIO
TITLE “No Conviction”
PERFORMER “Lagwagon”
INDEX 01 00:00:00
FILE “25 – Jaded Ways.wav” WAVE
TRACK 25 AUDIO
TITLE “Jaded Ways”
PERFORMER “Lagwagon”
INDEX 01 00:00:00


Leave a Reply

Your email address will not be published. Required fields are marked *

This site uses Akismet to reduce spam. Learn how your comment data is processed.