Lagwagon – Let’s Talk About Feelings




Artist: Lagwagon
Year: 1998
Genre: Punk
Notes: Discogs
Add. Notes:
Cover incl.: Yes
Encoder: FLAC
Bitrate: ~1000 kBit/s (44.1 kHz/16 Bit/s)
Log & Cue incl.: Yes
Size: 193,67 MB
Password: “slam” (without ” “)


All Downloads/Hosters are compatible

Download 1
NitroFlare.com
KatFile.com
Turbobit.net
Rapidgator.net
UploadRar.com
Download 2
NitroFlare.com
KatFile.com
Turbobit.net
Rapidgator.net
UploadRar.com

Tracklist:

1 - After You My Friend - 2:34
2 - Gun In Your Hand - 2:02
3 - Leave The Light On - 1:54
4 - Change Despair - 1:55
5 - Train - 2:24
6 - Hurry Up And Wait - 0:34
7 - Everything Turns Grey - 1:49
8 - Love Story - 2:20
9 - Messengers - 1:57
10 - The Kids Are All Wrong - 1:07
11 - May 16 - 2:57
12 - Owen Meaney - 3:45

EAC-Log, CUE-Sheed & NFO:

Click to open spoiler
Exact Audio Copy V0.99 prebeta 4 from 23. January 2008

EAC extraction logfile from 27. August 2008, 22:31

Lagwagon / Let’s Talk About Feelings

Used drive : SONY DVD RW DRU-720A Adapter: 5 ID: 0

Read mode : Secure
Utilize accurate stream : Yes
Defeat audio cache : Yes
Make use of C2 pointers : No

Read offset correction : 12
Overread into Lead-In and Lead-Out : No
Fill up missing offset samples with silence : Yes
Delete leading and trailing silent blocks : No
Null samples used in CRC calculations : Yes
Used interface : Installed external ASPI interface
Gap handling : Appended to previous track

Used output format : User Defined Encoder
Selected bitrate : 128 kBit/s
Quality : High
Add ID3 tag : No
Command line compressor : C:\Program Files\Exact Audio Copy\Flac\flac.exe
Additional command line options : -V -8 -T “artist=%a” -T “title=%t” -T “album=%g” -T “date=%y” -T “tracknumber=%n” -T “genre=%m” %s

TOC of the extracted CD

Track | Start | Length | Start sector | End sector
———————————————————
1 | 0:00.00 | 2:34.43 | 0 | 11592
2 | 2:34.43 | 2:02.57 | 11593 | 20799
3 | 4:37.25 | 1:54.55 | 20800 | 29404
4 | 6:32.05 | 1:55.70 | 29405 | 38099
5 | 8:28.00 | 2:24.43 | 38100 | 48942
6 | 10:52.43 | 0:34.62 | 48943 | 51554
7 | 11:27.30 | 1:49.35 | 51555 | 59764
8 | 13:16.65 | 2:20.33 | 59765 | 70297
9 | 15:37.23 | 1:57.35 | 70298 | 79107
10 | 17:34.58 | 1:07.35 | 79108 | 84167
11 | 18:42.18 | 2:57.72 | 84168 | 97514
12 | 21:40.15 | 3:43.45 | 97515 | 114284

Track 1

Filename D:\EACrips\01 – After You My Friend.wav

Pre-gap length 0:00:02.00

Peak level 97.5 %
Track quality 100.0 %
Test CRC F1BFA07A
Copy CRC F1BFA07A
Accurately ripped (confidence 4) [5C732804]
Copy OK

Track 2

Filename D:\EACrips\02 – Gun In Your Hand.wav

Peak level 97.5 %
Track quality 100.0 %
Test CRC 6DB6E03A
Copy CRC 6DB6E03A
Accurately ripped (confidence 4) [CF6558D9]
Copy OK

Track 3

Filename D:\EACrips\03 – Leave The Light On.wav

Peak level 97.5 %
Track quality 100.0 %
Test CRC EBF29014
Copy CRC EBF29014
Accurately ripped (confidence 4) [BF239631]
Copy OK

Track 4

Filename D:\EACrips\04 – Change Despair.wav

Pre-gap length 0:00:18.05

Peak level 97.5 %
Track quality 100.0 %
Test CRC 87E95BFB
Copy CRC 87E95BFB
Accurately ripped (confidence 4) [C72000F9]
Copy OK

Track 5

Filename D:\EACrips\05 – Train.wav

Peak level 97.5 %
Track quality 100.0 %
Test CRC 81C319C1
Copy CRC 81C319C1
Accurately ripped (confidence 4) [884762E5]
Copy OK

Track 6

Filename D:\EACrips\06 – Hurry Up And Wait.wav

Peak level 97.5 %
Track quality 100.0 %
Test CRC EC5165D9
Copy CRC EC5165D9
Accurately ripped (confidence 4) [68E5569F]
Copy OK

Track 7

Filename D:\EACrips\07 – Everything Turns Grey.wav

Peak level 97.2 %
Track quality 100.0 %
Test CRC 521FFFE7
Copy CRC 521FFFE7
Accurately ripped (confidence 3) [AF55CD76]
Copy OK

Track 8

Filename D:\EACrips\08 – Love Story.wav

Peak level 97.2 %
Track quality 99.9 %
Test CRC 6A671111
Copy CRC 6A671111
Accurately ripped (confidence 3) [3E337F99]
Copy OK

Track 9

Filename D:\EACrips\09 – Messengers.wav

Peak level 97.5 %
Track quality 100.0 %
Test CRC 192B7AEA
Copy CRC 192B7AEA
Accurately ripped (confidence 4) [EA45FC9F]
Copy OK

Track 10

Filename D:\EACrips\10 – The Kids Are All Wrong.wav

Peak level 94.3 %
Track quality 100.0 %
Test CRC E564F3A4
Copy CRC E564F3A4
Accurately ripped (confidence 4) [7145EB56]
Copy OK

Track 11

Filename D:\EACrips\11 – May 16.wav

Peak level 97.5 %
Track quality 99.9 %
Test CRC DCB29319
Copy CRC DCB29319
Accurately ripped (confidence 4) [FE5B5E51]
Copy OK

Track 12

Filename D:\EACrips\12 – Owen Meaney.wav

Peak level 97.5 %
Track quality 100.0 %
Test CRC 773091D0
Copy CRC 773091D0
Accurately ripped (confidence 3) [C815CE9E]
Copy OK

All tracks accurately ripped

No errors occurred

End of status report

REM GENRE Punk
REM DATE 1998
REM DISCID A305F30C
REM COMMENT “ExactAudioCopy v0.99pb4”
PERFORMER “Lagwagon”
TITLE “Let’s Talk About Feelings”
FILE “01 – After You My Friend.wav” WAVE
TRACK 01 AUDIO
TITLE “After You My Friend”
PERFORMER “Lagwagon”
INDEX 01 00:00:00
FILE “02 – Gun In Your Hand.wav” WAVE
TRACK 02 AUDIO
TITLE “Gun In Your Hand”
PERFORMER “Lagwagon”
INDEX 01 00:00:00
FILE “03 – Leave The Light On.wav” WAVE
TRACK 03 AUDIO
TITLE “Leave The Light On”
PERFORMER “Lagwagon”
INDEX 01 00:00:00
TRACK 04 AUDIO
TITLE “Change Despair”
PERFORMER “Lagwagon”
INDEX 00 01:36:50
FILE “04 – Change Despair.wav” WAVE
INDEX 01 00:00:00
FILE “05 – Train.wav” WAVE
TRACK 05 AUDIO
TITLE “Train”
PERFORMER “Lagwagon”
INDEX 01 00:00:00
FILE “06 – Hurry Up And Wait.wav” WAVE
TRACK 06 AUDIO
TITLE “Hurry Up And Wait”
PERFORMER “Lagwagon”
INDEX 01 00:00:00
FILE “07 – Everything Turns Grey.wav” WAVE
TRACK 07 AUDIO
TITLE “Everything Turns Grey”
PERFORMER “Lagwagon”
INDEX 01 00:00:00
FILE “08 – Love Story.wav” WAVE
TRACK 08 AUDIO
TITLE “Love Story”
PERFORMER “Lagwagon”
INDEX 01 00:00:00
FILE “09 – Messengers.wav” WAVE
TRACK 09 AUDIO
TITLE “Messengers”
PERFORMER “Lagwagon”
INDEX 01 00:00:00
FILE “10 – The Kids Are All Wrong.wav” WAVE
TRACK 10 AUDIO
TITLE “The Kids Are All Wrong”
PERFORMER “Lagwagon”
INDEX 01 00:00:00
FILE “11 – May 16.wav” WAVE
TRACK 11 AUDIO
TITLE “May 16”
PERFORMER “Lagwagon”
INDEX 01 00:00:00
FILE “12 – Owen Meaney.wav” WAVE
TRACK 12 AUDIO
TITLE “Owen Meaney”
PERFORMER “Lagwagon”
INDEX 01 00:00:00


Leave a Reply

Your email address will not be published. Required fields are marked *

This site uses Akismet to reduce spam. Learn how your comment data is processed.